<?xml version="1.0" standalone="no"?>
<!DOCTYPE svg PUBLIC "-//W3C//DTD SVG 1.1//EN" "http://www.w3.org/Graphics/SVG/1.1/DTD/svg11.dtd" >
<svg xmlns="http://www.w3.org/2000/svg">
<metadata>
This is a custom SVG webfont generated by Font Squirrel.
Copyright   : Copyright c 20042005 by Johan Winge
Designer    : Johan Winge
</metadata>
<defs>
<font id="TengwarAnnatarRegular" horiz-adv-x="0" >
<font-face units-per-em="2048" ascent="1638" descent="-410" />
<missing-glyph horiz-adv-x="565" />
<glyph unicode=" "  horiz-adv-x="565" />
<glyph unicode="&#x09;" horiz-adv-x="565" />
<glyph unicode="&#xa0;" horiz-adv-x="565" />
<glyph unicode="!" horiz-adv-x="1259" d="M-63 -982q0 20 26 51q51 62 79 135q24 66 41 157q44 233 56 494q11 227 12 647q1 553 34 766q16 104 45 192q49 144 154 251q54 56 92 68q6 3 14 3q14 0 14 -14q0 -28 -24 -54q-41 -43 -61 -82q-53 -105 -79 -328q-21 -181 -21 -518v-69v-142q77 92 200 178 q190 136 340 136q116 0 201 -86q95 -96 108 -236q2 -19 2 -38q0 -170 -122 -328q-102 -133 -236 -189q-67 -28 -127 -28q-142 0 -153 93q-1 7 -1 15q0 70 64 110q36 22 72 22q35 0 78 -34q41 -33 66 -37q8 -2 16 -2q65 0 109 32q30 22 52 104q14 54 14 109q0 110 -66 205 q-79 114 -203 120h-8q-116 0 -237 -85q-92 -65 -132 -144q-34 -67 -39 -181l-8 -285q-5 -101 -15 -208q-26 -286 -64 -424q-56 -202 -182 -328q-63 -63 -97 -63q-14 0 -14 15z" />
<glyph unicode="&#x22;" d="M-1758 -221q0 37 64 91q44 36 63 36l141 -23q41 -6 83 -8q44 -3 491 -3q457 0 537 6q59 5 143 22q31 6 36 6q11 0 11 -12q0 -27 -44 -74q-38 -41 -74 -53q-117 -39 -527 -38l-198 1q-464 0 -550 7q-59 5 -154 25q-20 9 -22 17z" />
<glyph unicode="#" d="M-1241 1306q0 14 73 85q52 51 63 51q13 0 85 -74q50 -51 50 -61q0 -16 -81 -91q-47 -44 -54 -44q-13 0 -85 73q-51 51 -51 61zM-1058 1568q0 12 74 84q51 50 61 50q14 0 86 -73q49 -51 49 -61q0 -13 -72 -84q-52 -51 -63 -51q-14 0 -88 77q-47 49 -47 58zM-876 1306 q0 16 76 88q50 48 60 48q13 0 85 -73q51 -52 51 -62q0 -16 -82 -92q-46 -43 -54 -43q-11 0 -82 70q-54 54 -54 64z" />
<glyph unicode="$" d="M-1122 1126q0 18 29 43q233 217 421 367q123 96 152 96q38 0 52 -33q4 -10 4 -21q0 -31 -37 -63l-26 -21q-220 -171 -422 -308q-126 -86 -146 -86q-24 5 -27 26z" />
<glyph unicode="%" d="M-1110 1307q0 13 75 86q50 49 59 49q15 0 88 -77q48 -49 48 -59q0 -12 -68 -80q-54 -54 -67 -54q-16 0 -88 77q-47 49 -47 58z" />
<glyph unicode="&#x26;" d="M-1249 1128q0 25 115 81l212 101q224 114 253 208q5 16 5 31q0 54 -64 84q-32 15 -64 15q-35 0 -74 -30q-32 -24 -53 -24q-15 0 -15 12q0 22 49 72q88 88 185 102q14 2 28 2q94 0 143 -70q30 -42 30 -95q0 -98 -98 -199q-27 -28 -59 -52q-91 -69 -365 -186 q-173 -74 -202 -74q-22 0 -25 17q-1 2 -1 5z" />
<glyph unicode="'" d="M-1097 -219q2 38 66 91q42 35 61 35q3 0 33 -12q35 -12 91 -21q11 -1 245 -2q249 0 287 5q32 4 75 21q23 9 29 9q12 0 12 -14q0 -25 -37 -66q-46 -50 -115 -73q-59 -19 -115 -22q-41 -2 -230 -2q-256 0 -301 7q-33 4 -79 23q-21 14 -22 21z" />
<glyph unicode="(" d="M-1126 -460q0 11 70 81q54 54 65 54q14 0 89 -79q46 -48 46 -56q0 -12 -69 -81q-54 -55 -67 -55q-16 0 -91 82q-43 47 -43 54z" />
<glyph unicode=")" d="M-1689 1537q2 36 67 99q116 111 283 156q86 23 175 23q141 0 383 -51q231 -49 325 -59q62 -6 118 -6q195 0 299 85l58 51q20 14 40 14q13 0 13 -12q0 -29 -56 -89q-107 -113 -271 -162q-95 -29 -198 -29q-147 0 -378 50q-219 48 -306 58q-72 8 -138 8q-201 0 -304 -85 l-58 -51q-19 -14 -39 -14q-13 0 -13 14z" />
<glyph unicode="*" horiz-adv-x="1198" d="M123 470q0 414 259 783q155 219 355 363q143 102 224 108h7q7 0 10 -1q9 0 11 -12q0 -27 -59 -64l-141 -85q-186 -122 -303 -297q-176 -266 -193 -597q-2 -30 -2 -58q0 -218 112 -359q97 -122 235 -133q12 -1 24 -1q78 0 154 29q57 21 80 54q46 76 48 169q0 64 -42 114 q-33 40 -39 52q-10 21 -10 45q0 57 46 99q38 35 87 35q70 0 105 -82q21 -50 21 -116q0 -190 -155 -356q-27 -29 -58 -56q-176 -155 -374 -155q-156 0 -268 126q-119 134 -133 347q-1 24 -1 48z" />
<glyph unicode="+" horiz-adv-x="696" d="M-614 15q0 41 67 98q24 20 40 28q30 14 385 17h25q211 0 363 -26q127 -21 220 -112q108 -106 108 -262q0 -169 -140 -315q-138 -145 -311 -164q-18 -1 -35 -1q-106 0 -203 62q-117 75 -126 191v15q0 98 88 182q51 50 87 55q16 0 16 -16q0 -19 -21 -47t-21 -56 q0 -80 75 -150q90 -85 222 -86q73 0 132 28q33 16 47 38q39 60 40 147q0 139 -101 240q-83 81 -213 105q-52 9 -160 17q-78 5 -166 5l-396 -8q-20 6 -22 15z" />
<glyph unicode="," horiz-adv-x="1196" d="M92 359q0 182 146 344q118 132 276 190q81 30 153 30q190 0 307 -111q107 -101 107 -249q0 -227 -169 -444l-12 -16q68 -31 119 -99q62 -83 62 -188q0 -305 -375 -583q-73 -55 -160 -107q-100 -60 -136 -67q-9 -1 -18 -1q-20 0 -20 13q0 28 83 81l178 112 q185 124 241 241q39 82 39 179q0 139 -120 226q-41 30 -80 42q-12 3 -12 14q0 29 46 77q63 69 85 99q81 116 81 278q0 142 -106 238q-107 97 -266 97q-128 0 -201 -53q-28 -21 -42 -47q-38 -69 -38 -153q0 -62 41 -111q32 -39 39 -52q10 -21 10 -46q0 -45 -32 -86 q-38 -49 -105 -49q-64 0 -98 80q-23 52 -23 121z" />
<glyph unicode="-" horiz-adv-x="487" d="M124 155q0 12 74 84q52 51 62 51q14 0 87 -77q48 -49 48 -59q0 -12 -68 -80q-54 -54 -67 -54q-16 0 -89 78q-47 48 -47 57zM124 718q0 12 73 84q53 51 63 51q12 0 83 -72q52 -53 52 -63q0 -13 -72 -84q-52 -51 -63 -51q-14 0 -87 76q-49 50 -49 59z" />
<glyph unicode="." horiz-adv-x="1069" d="M84 366q0 179 146 335q110 117 244 166q59 21 107 21q12 1 25 1q187 0 309 -140q35 -41 55 -82q37 -76 37 -158q0 -182 -159 -345q-175 -180 -380 -180q-161 0 -273 112q-14 14 -26 29q-85 106 -85 241zM252 505q0 -135 92 -236q14 -16 31 -30q102 -87 229 -87 q155 0 205 85q29 49 29 131q0 136 -93 236q-110 116 -290 116q-55 0 -114 -24q-36 -14 -47 -33q-42 -69 -42 -158z" />
<glyph unicode="/" d="M-1324 -1023q0 30 52 84q94 97 223 121q36 7 72 7q79 0 232 -33q140 -31 218 -31q99 0 164 51q33 26 43 30q6 2 12 2q11 0 13 -14q0 -30 -53 -85q-94 -96 -224 -121q-35 -6 -71 -6q-74 0 -232 34q-142 30 -217 30q-96 0 -162 -50q-35 -27 -45 -30q-7 -2 -13 -2 q-12 0 -12 13z" />
<glyph unicode="0" d="M-992 1589q0 29 52 82q93 98 222 123q35 6 71 6q84 0 224 -32t228 -32q99 0 164 52q32 26 42 29q5 1 11 1q15 0 15 -14q0 -25 -46 -77q-92 -101 -227 -127q-38 -7 -77 -7q-70 0 -232 34q-143 30 -216 30q-98 0 -138 -33l-36 -30q-15 -11 -34 -17q-7 -2 -11 -2 q-12 0 -12 14z" />
<glyph unicode="1" horiz-adv-x="1372" d="M51 -982q0 22 54 90q24 30 29 41q131 251 131 1252q0 213 -18 263q-15 40 -53 40q-44 0 -80 -29q-27 -21 -47 -21q-10 0 -14 14q0 29 53 87q84 92 182 112q20 4 41 4q72 0 92 -83q11 -44 12 -134l1 -79q75 90 198 178q191 136 341 136q120 0 208 -91q66 -68 93 -174 q11 -45 11 -95q0 -156 -114 -313q-96 -132 -222 -194q-77 -38 -155 -38q-114 0 -141 68q-7 18 -7 40q0 76 67 114q33 18 67 18q36 0 80 -34q43 -33 69 -37q8 -1 16 -1q58 0 100 29q8 5 12 10q54 73 60 182v14q0 146 -92 245l-9 10q-79 79 -177 79q-115 0 -234 -83 q-93 -64 -133 -144q-37 -74 -40 -167v-28q-10 -856 -177 -1118q-59 -94 -131 -149q-37 -28 -59 -28q-14 0 -14 14z" />
<glyph unicode="2" horiz-adv-x="2002" d="M51 -982q0 22 54 90q24 30 29 41q131 251 131 1252q0 213 -18 263q-15 40 -53 40q-44 0 -80 -29q-27 -21 -47 -21q-10 0 -14 14q0 29 53 87q84 92 182 112q20 4 41 4q76 0 95 -94q8 -40 9 -115l1 -70q203 226 385 282q46 14 85 14q145 0 227 -134q35 -58 50 -128l5 -21 l75 80q204 203 383 203q132 0 214 -144q21 -37 33 -73q21 -65 21 -134q0 -177 -125 -341q-99 -129 -222 -185q-61 -27 -113 -27q-139 0 -153 88q-2 9 -2 20q0 70 64 110q36 22 72 22q37 0 79 -34q38 -32 61 -37q7 -1 16 -1q63 0 95 37q33 39 52 127q7 34 7 80 q0 202 -131 287q-58 38 -108 38q-93 0 -183 -75q-11 -9 -18 -16q-55 -58 -106 -184q-55 -133 -77 -175q-12 -21 -25 -41q-120 -181 -276 -232q-44 -14 -81 -14q-101 0 -138 52q-16 23 -16 55q0 53 44 96q40 37 91 37q37 0 80 -34q40 -32 64 -36q9 -2 19 -2q63 0 84 32 q58 85 58 204q0 197 -130 289q-61 43 -117 44q-103 0 -200 -81q-114 -96 -139 -242q-6 -31 -6 -98q-10 -857 -177 -1119q-59 -94 -131 -149q-37 -28 -59 -28q-14 0 -14 14z" />
<glyph unicode="3" horiz-adv-x="1259" d="M84 -2q0 16 21 46q38 53 46 130q5 62 5 448q0 453 40 673q52 297 225 446l8 7q42 34 65 34q15 0 15 -14q0 -22 -32 -63q-55 -68 -76 -127q-3 -6 -5 -13q-54 -166 -67 -515q-6 -174 -6 -454v-21l68 72q17 16 31 28q147 132 296 185q77 28 144 28q119 0 206 -90 q66 -69 93 -174q11 -45 11 -95q0 -171 -123 -329q-103 -132 -237 -188q-67 -28 -127 -28q-125 0 -148 77q-5 14 -5 30q0 71 66 111q35 22 70 22q37 0 80 -34q40 -32 64 -37q9 -1 18 -1q55 0 97 24q6 3 11 7q30 22 52 104q14 54 14 109q0 109 -65 204q-79 114 -200 121h-13 q-106 0 -215 -70q-144 -93 -181 -249q-13 -64 -17 -135q-25 -147 -148 -249q-41 -34 -66 -34q-15 0 -15 14z" />
<glyph unicode="4" horiz-adv-x="1888" d="M84 -2q0 16 21 46q38 53 46 130q5 62 5 448q0 453 40 673q52 297 225 446l8 7q42 34 65 34q15 0 15 -14q0 -22 -32 -63q-55 -68 -76 -127q-3 -6 -5 -13q-58 -176 -71 -569l-2 -382v-22l42 49q82 86 187 156q137 91 253 91q128 0 213 -134q48 -75 55 -137q1 -6 1 -10l1 -1 q3 0 19 21q41 55 120 118q180 144 316 144q121 0 203 -122q67 -100 67 -228q0 -168 -115 -330q-97 -137 -225 -196q-45 -20 -87 -27q-15 -2 -42 -2q-100 0 -133 56q-13 22 -13 51q0 68 61 109q36 24 74 24q45 0 76 -31q28 -27 43 -33q18 -8 43 -8q76 0 101 52q4 7 4 8 q45 84 45 184q0 171 -107 268q-20 18 -40 30q-45 27 -96 27q-89 0 -179 -73q-15 -13 -24 -23q-58 -66 -114 -209q-42 -108 -60 -139q-78 -140 -198 -224q-98 -69 -189 -69q-121 0 -146 71q-6 17 -6 37q0 76 67 114q33 18 67 18q46 0 76 -30q26 -27 40 -33q19 -9 47 -9 q37 0 77 20q56 93 63 176q2 20 2 42q0 153 -91 253q-54 61 -120 75q-12 2 -36 2q-100 0 -201 -82q-97 -77 -128 -219q-10 -44 -22 -142q-16 -131 -117 -231q-57 -56 -94 -62h-4q-15 0 -15 14z" />
<glyph unicode="5" horiz-adv-x="2002" d="M57 669q0 43 71 106q86 77 173 93q17 3 32 3q76 0 95 -100q8 -42 8 -109v-70q58 77 164 159q177 138 318 138q96 0 174 -82q67 -72 90 -181l5 -20l53 57q179 183 337 218q33 8 64 8q135 0 216 -141q21 -37 33 -73q23 -67 23 -138q0 -144 -95 -297q-93 -150 -223 -217 q-76 -39 -152 -39q-101 0 -133 58q-12 21 -12 49q0 71 64 111q35 22 71 22q45 0 76 -31q28 -27 43 -33q18 -8 43 -8q66 0 88 33q61 90 61 211q0 169 -105 267q-21 19 -41 31q-45 27 -96 27q-89 0 -178 -73q-15 -12 -25 -23q-47 -54 -101 -181q-60 -142 -96 -200 q-41 -68 -94 -121q-139 -139 -270 -139q-115 0 -144 65q-9 19 -9 43q0 54 45 96q38 36 90 36q44 0 76 -31q29 -28 47 -35q16 -6 39 -6q39 0 77 20q66 94 66 216q0 158 -93 258q-54 58 -119 72q-12 2 -36 2q-102 0 -206 -87q-91 -76 -121 -207q-9 -40 -23 -149 q-17 -132 -119 -232q-56 -56 -96 -61q-15 0 -15 13v3q0 15 22 45q39 55 44 129q5 69 5 368q0 161 -69 161q-46 0 -80 -27q-26 -21 -48 -22q-14 0 -14 15z" />
<glyph unicode="6" horiz-adv-x="1372" d="M57 669q0 43 71 106q86 77 173 93q17 3 32 3q79 0 96 -108q7 -41 7 -109q0 -78 1 -78q2 0 22 24q31 35 76 75q179 158 342 200q51 14 97 14q118 0 206 -91q67 -69 94 -174q11 -45 11 -94q0 -143 -100 -295q-97 -146 -230 -212q-79 -39 -157 -39q-127 0 -149 79 q-4 13 -4 28q0 51 43 94q38 39 92 39q38 0 81 -34q39 -32 62 -37q9 -1 19 -1q60 0 104 27q3 2 5 4q28 23 50 101q15 52 15 101q0 175 -124 279q-68 57 -153 57q-120 0 -248 -94q-38 -27 -61 -53q-61 -67 -87 -193l-29 -143q-33 -133 -124 -209l-13 -11q-43 -34 -65 -34 q-15 0 -15 13v3q0 15 22 45q39 55 44 129q5 69 5 368q0 161 -69 161q-46 0 -80 -27q-26 -21 -48 -22q-14 0 -14 15z" />
<glyph unicode="7" horiz-adv-x="1216" d="M39 699q0 25 48 76q80 86 169 95q9 1 19 1q81 0 132 -93q10 -18 46 -104q10 -22 10 -24q3 0 51 46q178 174 332 189h28q125 0 199 -108q35 -52 46 -112q3 -21 3 -47q0 -176 -142 -350q-76 -93 -189 -178q-37 -28 -195 -126q-182 -114 -264 -202q-52 -56 -81 -116 q-32 -67 -32 -130q0 -137 116 -217q41 -29 77 -38q27 -8 63 -8q77 0 123 45q31 31 34 33q18 14 41 14q17 0 17 -16q0 -29 -58 -92q-96 -104 -210 -139q-43 -13 -85 -13q-165 0 -244 144q-41 76 -42 144q0 109 86 253q118 199 348 351q15 10 15 12q0 32 -114 351 q-50 139 -59 152l-1 2l-7 -9q0 4 6 14l-9 20l-38 95q-51 108 -119 108q-33 0 -64 -24q-20 -16 -39 -16q-17 0 -17 17zM478 615l11 -29q66 -166 142 -407q26 -82 26 -94l1 -1q15 0 134 97q41 33 58 50q104 101 104 245q0 118 -81 189q-66 58 -166 58q-115 0 -229 -108z" />
<glyph unicode="8" horiz-adv-x="1169" d="M88 328q0 172 194 445q52 73 227 293q161 204 207 300q31 65 31 111q0 59 -35 97q-12 13 -12 19q0 30 52 87q60 66 101 66q20 0 42 -43q20 -41 20 -82q0 -124 -143 -331l-59 -83l-128 -163q-227 -283 -289 -412q-40 -86 -40 -159q0 -163 127 -267q89 -73 200 -87 q14 -1 45 -1q281 0 281 251q0 64 -41 113q-33 38 -38 49q-12 21 -12 48q0 54 43 97q38 38 90 38q89 0 116 -115q9 -39 9 -83q0 -178 -135 -335q-34 -40 -76 -77q-178 -155 -376 -155q-124 0 -227 67q-118 77 -158 209q-16 51 -16 103z" />
<glyph unicode="9" horiz-adv-x="1290" d="M6 68q0 27 50 83q62 70 104 70q10 0 31 -26q37 -40 67 -43q20 0 25 7q1 2 3 5q76 118 203 348l110 197l-322 797q-19 43 -62 57q-12 4 -25 4q-22 0 -62 -37q-42 -38 -65 -41q-4 -1 -7 -1q-17 0 -17 16q0 32 64 97q86 90 167 111q19 5 36 5q67 0 107 -61q5 -7 9 -16 l573 -1414q48 -93 118 -93q16 0 52 34q45 42 74 44q16 0 16 -15q0 -29 -57 -92q-84 -94 -170 -115q-19 -5 -37 -5q-92 0 -148 122l-19 46l-181 447q-2 0 -36 -63q-62 -118 -159 -273q-144 -231 -279 -272q-26 -7 -52 -7q-40 0 -88 50q-23 24 -23 34z" />
<glyph unicode=":" d="M-1742 -352q0 28 53 84q104 110 261 153q78 21 162 21q127 0 339 -45q205 -44 298 -51q40 -3 77 -3q172 0 261 73l50 43q18 13 38 13h3q8 -4 10 -13q0 -32 -56 -90q-105 -108 -266 -149q-77 -19 -159 -19q-128 0 -334 45q-199 43 -290 51q-44 3 -86 3q-170 0 -261 -74 l-50 -43q-19 -13 -37 -13q-13 0 -13 14z" />
<glyph unicode=";" d="M-1097 -335q0 26 48 77q89 96 209 117q28 4 56 4q70 0 208 -29q113 -24 179 -24q86 0 130 40q25 23 35 26q9 4 20 4q14 0 14 -13q0 -29 -50 -82q-89 -94 -211 -114q-27 -4 -53 -4q-65 0 -206 30q-115 24 -179 24q-87 0 -131 -39q-26 -23 -35 -27q-9 -3 -21 -3 q-13 0 -13 13z" />
<glyph unicode="&#x3c;" horiz-adv-x="1191" d="M80 323q0 180 145 342q31 35 68 68q177 156 374 156q49 0 95 -12q7 -1 13 -1q11 0 43 42q86 114 99 269q2 22 2 44q0 148 -104 251q-104 104 -257 108h-12q-76 0 -152 -28q-59 -22 -80 -54q-46 -77 -49 -167q0 -66 41 -115q32 -38 38 -50q11 -21 11 -47q0 -43 -30 -84 q-39 -51 -107 -51q-64 0 -98 79q-23 52 -23 121q0 147 110 298t271 222q102 45 205 45q165 0 281 -107q113 -104 122 -258v-24q0 -227 -161 -437q-29 -37 -61 -71q-14 -14 -14 -15l42 -24q131 -87 166 -224q11 -44 11 -92q0 -191 -223 -512l-164 -224l-126 -172 q-142 -202 -149 -306v-13q0 -61 35 -100q14 -16 14 -24q0 -29 -52 -86q-61 -66 -100 -66h-2q-14 0 -35 34q-28 45 -28 100q0 117 129 322q70 111 198 283q232 311 294 449q41 93 41 175q0 123 -82 221q-92 111 -245 131q-14 1 -45 1q-88 0 -164 -32q-36 -15 -57 -36 q-49 -49 -59 -163q-1 -12 -1 -22q0 -62 41 -111q33 -40 39 -54q10 -20 10 -45q0 -68 -61 -110q-36 -24 -74 -24q-61 0 -97 73q-26 53 -26 127z" />
<glyph unicode="=" horiz-adv-x="487" d="M124 436q0 13 74 84q52 51 62 51q13 0 83 -71q52 -53 52 -64q0 -13 -72 -84q-52 -51 -63 -51q-14 0 -88 78q-48 48 -48 57z" />
<glyph unicode="&#x3e;" d="M-664 -434q0 13 73 84q52 51 63 51q12 0 84 -73q50 -52 50 -62q0 -15 -78 -90q-48 -45 -56 -45q-15 0 -88 76q-48 50 -48 59zM-489 -687q0 14 72 84q52 51 63 51q12 0 82 -71q52 -53 52 -63q0 -16 -78 -91q-48 -45 -56 -45q-15 0 -86 74q-49 51 -49 61zM-315 -434 q0 14 72 84q52 51 63 51q12 0 82 -71q52 -53 52 -64q0 -15 -78 -90q-48 -45 -56 -45q-15 0 -86 74q-49 51 -49 61z" />
<glyph unicode="?" d="M-1986 -1041q0 36 76 106q111 102 245 145q17 5 33 9q79 20 173 20q150 0 365 -48q207 -47 290 -57q86 -11 170 -11q194 0 295 83l60 52q21 15 42 15q12 -2 12 -13q0 -27 -57 -87q-107 -113 -259 -162q-37 -12 -75 -19q-66 -12 -138 -12q-150 0 -366 49q-207 46 -291 57 t-166 11q-195 0 -299 -86l-57 -51q-20 -14 -40 -14q-13 0 -13 13z" />
<glyph unicode="@" horiz-adv-x="1888" d="M-63 -982q0 22 26 53q48 59 74 121q28 69 46 169q44 233 56 494q11 227 12 647q1 553 34 766q16 104 45 192q49 144 154 251q54 56 92 68q6 3 14 3q14 0 14 -14q0 -28 -24 -54q-41 -43 -61 -82q-53 -105 -79 -328q-21 -179 -21 -501v-68v-144q35 53 131 132 q185 153 331 164q11 1 21 1q113 0 192 -101q56 -72 78 -181q2 0 20 23q43 54 121 118q179 142 314 142q106 0 182 -92q42 -51 67 -126q21 -64 21 -133q0 -178 -125 -342q-99 -130 -223 -185q-61 -27 -114 -27q-110 0 -142 60q-11 21 -11 47q0 67 61 108q36 25 74 25t80 -34 q39 -32 63 -37q9 -1 18 -1q70 0 93 37q57 89 57 206q0 188 -126 286q-47 38 -116 40q-87 0 -172 -67q-16 -12 -27 -24q-56 -60 -106 -185q-51 -129 -73 -169q-16 -31 -35 -58q-131 -188 -288 -226q-31 -8 -60 -8q-154 0 -154 107q0 87 83 121q29 12 51 12q44 0 77 -32 q31 -28 49 -34q17 -6 38 -6q62 0 82 30q58 85 59 208q0 153 -91 253q-54 60 -120 75q-12 2 -36 2q-94 0 -189 -73q-122 -94 -149 -243q-4 -23 -6 -46q-2 -16 -2 -62q-6 -490 -69 -819q-47 -244 -176 -390q-73 -74 -120 -83q-15 0 -15 14z" />
<glyph unicode="A" horiz-adv-x="1245" d="M80 342q0 166 120 324q101 134 233 192q69 30 131 30q150 0 159 -103q1 -6 1 -13q0 -66 -61 -108q-36 -25 -73 -25t-80 37q-40 35 -62 42q-12 3 -24 3q-58 0 -103 -28q-9 -6 -13 -11q-55 -72 -60 -184v-12q0 -154 101 -255q78 -79 183 -79q94 0 203 43q97 39 145 98 q49 62 54 171v143q0 468 38 681q7 37 16 77q38 173 135 295q90 113 144 121q3 1 5 1q15 0 15 -15q0 -21 -25 -51q-49 -58 -76 -125q-70 -178 -81 -559l-2 -53l-1 -217v-2q-2 -224 -2 -251l-13 -669q-8 -185 -16 -254q-35 -301 -165 -463q-80 -100 -135 -117q-7 -2 -13 -2 q-14 0 -14 14q0 19 54 91q27 37 33 50q61 124 77 359q7 98 17 534l4 181v9l-17 -17q-210 -202 -447 -236q-38 -5 -73 -5q-120 0 -208 91q-66 68 -93 173q-11 45 -11 94z" />
<glyph unicode="B" d="M-430 1307q0 12 73 84q52 51 61 51q15 0 88 -77q48 -49 48 -59q0 -12 -68 -80q-54 -54 -67 -54q-16 0 -89 78q-46 48 -46 57z" />
<glyph unicode="C" d="M-588 1307q0 14 75 86q51 49 60 49q14 0 86 -74q49 -51 49 -61q0 -13 -70 -82q-53 -53 -65 -53q-15 0 -87 75q-48 50 -48 60zM-414 1560q0 12 74 84q51 50 61 50q14 0 86 -73q49 -51 49 -61q0 -14 -72 -85q-52 -51 -63 -51q-13 0 -85 75q-50 51 -50 61zM-240 1307 q0 12 74 84q51 51 61 51q15 0 89 -77q46 -49 46 -58q0 -14 -73 -85q-51 -50 -61 -50q-17 0 -92 80q-44 47 -44 55z" />
<glyph unicode="D" d="M-874 1306q0 16 75 88q50 48 60 48q13 0 85 -73q51 -52 51 -62q0 -16 -82 -92q-46 -43 -54 -43q-11 0 -83 72q-52 52 -52 62zM-691 1568l1 8q7 12 77 80q48 46 57 46q14 0 87 -76q48 -50 48 -59q0 -11 -72 -82q-52 -52 -63 -52q-20 0 -134 127zM-508 1306q0 15 74 87 q51 49 61 49q13 0 85 -74q50 -51 50 -61q0 -16 -81 -91q-47 -44 -54 -44q-12 0 -81 68q-54 55 -54 66z" />
<glyph unicode="E" d="M-962 1306q0 16 75 88q50 48 60 48q13 0 85 -73q51 -52 51 -62q0 -16 -82 -92q-46 -43 -54 -43q-11 0 -82 70q-53 54 -53 64zM-779 1568q0 15 75 86q50 48 60 48q13 0 83 -71q52 -53 52 -65q0 -10 -70 -79q-54 -54 -65 -54q-15 0 -86 74q-49 51 -49 61zM-596 1306 q0 15 74 87q51 49 61 49q13 0 85 -74q50 -51 50 -61q0 -16 -81 -91q-47 -44 -54 -44q-12 0 -81 68q-54 55 -54 66z" />
<glyph unicode="F" d="M-721 1126q0 35 346 322l148 125q76 59 108 59q44 0 55 -41q2 -7 2 -12q0 -34 -45 -71l-19 -14q-222 -172 -423 -309q-124 -85 -145 -85q-24 5 -27 26z" />
<glyph unicode="G" d="M-708 1307q0 14 74 86q51 49 60 49q15 0 89 -77q47 -49 47 -58q0 -14 -74 -85q-51 -50 -61 -50q-16 0 -88 76q-47 50 -47 59z" />
<glyph unicode="H" d="M-794 1125v3q0 26 163 219q196 230 305 321q15 12 26 20q114 78 209 78q97 0 141 -70q23 -36 23 -81q0 -116 -106 -209q-63 -56 -113 -66q-5 -1 -10 -1q-18 0 -18 13q0 10 26 41q53 68 55 131q0 82 -58 97q-11 3 -23 3q-86 -3 -240 -159q-25 -25 -177 -191 q-72 -80 -120 -125q-43 -42 -54 -44q-2 -1 -7 -1q-19 0 -22 21z" />
<glyph unicode="I" horiz-adv-x="1210" d="M94 358q0 182 145 343q118 133 276 192q81 30 153 30q235 0 348 -222q47 -94 62 -202q5 -40 5 -95q0 -410 -223 -778q-161 -266 -408 -455q-150 -115 -212 -115q-20 0 -20 14q0 26 60 70l135 94q166 123 273 281q190 281 222 635q6 58 6 112q0 221 -114 362 q-99 122 -239 131q-11 1 -21 1q-118 0 -193 -50q-33 -22 -49 -51q-38 -69 -38 -153q0 -63 41 -112q32 -38 38 -50q11 -21 11 -47q0 -57 -44 -99q-36 -35 -84 -36h-3q-87 0 -116 114q-11 40 -11 86z" />
<glyph unicode="J" d="M-778 1127q0 26 105 83l191 102q197 114 221 204q4 14 4 28q0 61 -78 85q-26 8 -46 8q-44 0 -82 -31q-29 -24 -52 -25q-13 0 -13 13q0 26 51 78q84 88 180 102q15 3 31 3q99 0 146 -74q26 -39 26 -90q0 -180 -283 -336q-103 -57 -292 -139q-73 -32 -84 -32q-25 0 -25 21z " />
<glyph unicode="K" horiz-adv-x="1189" d="M105 294v14q0 210 136 404q24 33 48 62l-47 39q-103 99 -103 240q0 332 491 624q81 48 124 50q22 0 22 -13q0 -27 -80 -79l-163 -102q-139 -94 -187 -180q-38 -70 -38 -158q0 -135 99 -226q28 -26 62 -45q14 -12 15 -17v-2q0 -34 -58 -92q-10 -11 -21 -20 q-102 -89 -127 -271q-6 -40 -6 -72q0 -129 95 -224q111 -107 278 -108q91 0 166 33q35 15 56 36q32 31 50 105q9 39 9 76q0 66 -42 115q-32 38 -38 49q-10 21 -10 47q0 56 45 99q38 36 88 36q70 0 104 -83q22 -50 22 -118q0 -146 -111 -297t-272 -222q-103 -45 -206 -45 q-159 0 -274 93q-121 99 -127 252z" />
<glyph unicode="L" d="M-1076 1q0 13 73 84q53 51 63 51q13 0 84 -73q51 -52 51 -62q0 -13 -74 -85q-51 -50 -61 -50q-14 0 -89 78q-47 48 -47 57z" />
<glyph unicode="M" d="M-446 1127q0 15 27 37l32 25l105 75q103 72 117 83q146 115 146 198q0 52 -57 76q-27 11 -59 11q-53 0 -105 -40q-30 -24 -43 -24h-2q-11 0 -11 14q0 30 49 87q81 93 182 111q20 3 40 3q86 0 132 -64q30 -42 30 -98q0 -158 -216 -315q-76 -55 -210 -131l-100 -57 q-25 -13 -34 -13q-21 0 -23 22z" />
<glyph unicode="N" d="M-463 1126q0 32 156 264q105 156 159 219q68 79 153 124q63 33 119 33q97 0 142 -71q25 -38 25 -88q0 -107 -96 -203q-59 -58 -102 -68q-5 -1 -9 -1q-15 0 -15 12q0 13 25 44q43 53 43 109q0 71 -45 100q-19 12 -43 12q-70 0 -168 -108q-49 -56 -187 -247 q-75 -103 -107 -138q-13 -16 -28 -16q-19 0 -22 23z" />
<glyph unicode="O" d="M-831 -460q0 11 70 81q54 54 65 54q14 0 89 -79q46 -48 46 -56q0 -12 -69 -81q-54 -55 -66 -55q-17 0 -92 82q-43 47 -43 54z" />
<glyph unicode="P" d="M-1724 936q2 41 90 116q73 62 144 95q111 50 249 50q125 0 336 -46q205 -45 299 -53q44 -4 87 -4q173 0 263 75l51 45q18 13 37 13q12 0 14 -10q0 -32 -57 -92q-105 -109 -265 -151q-78 -21 -162 -21q-126 0 -342 46q-208 45 -302 52q-40 4 -78 4q-171 0 -260 -74 l-51 -44q-19 -14 -39 -14q-14 0 -14 13z" />
<glyph unicode="Q" horiz-adv-x="1302" d="M-63 -982q0 22 26 53q48 59 74 121q28 69 46 169q44 233 56 494q11 227 12 647q1 553 34 766q16 104 45 192q49 144 154 251q54 56 92 68q6 3 14 3q14 0 14 -14q0 -28 -24 -54q-41 -43 -61 -82q-53 -105 -79 -328q-21 -181 -21 -518v-69v-142q86 102 214 190 q181 123 327 123q128 0 215 -97q85 -95 85 -234q0 -206 -193 -406h34q168 0 215 32q5 3 21 16q39 33 65 33q16 0 16 -15q0 -29 -51 -83q-93 -97 -222 -121q-6 -1 -11 -2q-50 -9 -144 -10l-360 9q-64 0 -160 -4l-62 -5q-20 -278 -42 -419q-11 -74 -25 -140 q-46 -218 -171 -356q-73 -74 -118 -82q-15 0 -15 14zM314 139h1q110 17 301 20q15 1 29 1l131 -3q75 0 128 32l8 6q33 26 60 102q20 60 20 118q0 187 -143 268q-67 38 -126 38q-110 0 -221 -72q-137 -90 -174 -234q-5 -21 -8 -42q-2 -12 -4 -109q0 -60 -2 -94v-31z" />
<glyph unicode="R" d="M-819 1126q0 36 274 360l123 142q40 44 73 44q36 0 49 -31q5 -11 5 -23q0 -23 -15 -46q-38 -57 -311 -324q-135 -133 -151 -142q-10 -7 -21 -7q-22 7 -26 27z" />
<glyph unicode="S" horiz-adv-x="1892" d="M78 333q0 179 123 343q99 131 225 186q62 26 116 26q124 0 150 -80q5 -17 5 -35q0 -69 -61 -111q-34 -22 -67 -23h-3q-47 0 -78 33q-28 29 -37 34q-24 16 -59 15q-59 -1 -89 -40q-31 -39 -49 -125q-8 -39 -8 -79q0 -167 104 -266q21 -20 42 -32q44 -27 97 -27 q117 0 211 54q23 13 41 28q49 42 74 136l33 126q11 35 25 66q62 132 179 230q24 20 48 36q93 61 174 61q108 0 145 -59q14 -24 14 -56q0 -42 -29 -83q-38 -51 -104 -51q-46 0 -77 33q-28 29 -39 35q-20 12 -51 12q-64 0 -85 -30q-59 -89 -59 -205q0 -203 133 -292 q61 -40 114 -41q78 0 171 39q75 32 111 77q60 75 64 221v118q0 470 39 686l15 72q39 173 135 295q90 113 144 121q3 1 5 1q15 0 15 -15q0 -20 -54 -91q-26 -34 -32 -47q-84 -168 -96 -597l-1 -52v-1l-2 -219q0 -138 -14 -920q-7 -193 -19 -281q-38 -281 -163 -436 q-80 -100 -135 -117q-7 -2 -13 -2q-14 0 -14 14q0 19 54 90q27 37 34 51q59 119 75 342q6 88 16 509q3 106 6 196v21l-22 -22q-183 -183 -390 -216q-35 -5 -67 -5q-145 0 -228 160q-21 41 -35 88q-105 -131 -269 -201q-111 -47 -215 -47q-114 0 -191 99q-37 48 -60 115 q-22 65 -22 135z" />
<glyph unicode="T" d="M-762 1307q0 14 75 86q51 49 60 49q14 0 86 -74q49 -51 49 -61q0 -13 -70 -82q-53 -53 -65 -53q-15 0 -87 75q-48 50 -48 60z" />
<glyph unicode="U" d="M-847 1127q0 25 64 71l152 106q61 46 114 92q83 72 103 124q8 22 8 44q0 56 -58 78q-24 9 -53 9q-58 0 -110 -41q-30 -24 -42 -25q-15 0 -15 14q0 30 46 86q80 99 187 116q22 3 43 3q95 -2 136 -76q21 -38 21 -85q0 -163 -230 -331q-64 -47 -170 -111q-141 -85 -164 -94 q-6 -2 -9 -2q-23 0 -23 22z" />
<glyph unicode="V" d="M-477 1126q0 34 272 357l125 145q40 44 73 44q36 0 49 -31q5 -11 5 -23q0 -23 -15 -46q-38 -57 -311 -324q-135 -133 -151 -142q-10 -7 -21 -7q-22 7 -26 27z" />
<glyph unicode="W" horiz-adv-x="1933" d="M-63 -982q0 22 26 53q48 59 74 121q28 69 46 169q44 233 56 494q11 227 12 647q1 553 34 766q16 104 45 192q49 144 154 251q54 56 92 68q6 3 14 3q14 0 14 -14q0 -28 -24 -54q-41 -43 -61 -82q-53 -105 -79 -328q-21 -179 -21 -501v-68v-144q35 53 131 132 q185 153 331 164q11 1 21 1q120 0 202 -116q54 -77 69 -171q2 0 21 24q58 74 178 159q145 105 261 105q61 0 128 -43q132 -85 132 -267q0 -203 -195 -417l-10 -11h32h19q161 0 231 52q32 23 37 25q10 4 21 4q17 0 17 -16q0 -28 -49 -80q-85 -92 -205 -119q-67 -15 -217 -15 h-12l-632 8q-118 0 -255 -4q-265 -9 -267 -13q-1 0 -3 -40q-18 -272 -57 -476q-48 -245 -177 -391q-72 -74 -119 -82q-15 0 -15 14zM313 136q107 11 382 20q129 3 150 20q4 3 8 9q56 88 57 205q0 151 -89 251q-56 63 -122 76q-10 3 -32 3h-10h-14q-87 -6 -175 -77 q-127 -102 -147 -262l-2 -23q-2 -16 -2 -62q-2 -110 -4 -160zM928 160h50l412 -7q155 0 211 146q24 63 24 137q0 133 -77 215q-65 69 -162 69q-76 0 -157 -62q-73 -57 -123 -153q-16 -31 -54 -133q-42 -113 -117 -204z" />
<glyph unicode="X" horiz-adv-x="1955" d="M82 815q0 53 60 117q51 54 87 54q17 0 17 -17q0 -7 -12 -33q-2 -5 -2 -7q0 -18 17 -41q5 -6 8 -8q67 -34 690 -34h13q351 0 508 6q175 7 179 11l2 30q7 235 27 359q43 262 159 408q71 89 125 115q14 7 24 7q14 0 14 -15q0 -20 -53 -91q-27 -34 -33 -47q-61 -122 -87 -416 q-10 -120 -10 -234l-3 -470l-13 -669q-6 -207 -24 -317q-41 -253 -158 -400q-77 -97 -132 -116q-9 -3 -16 -3q-14 0 -14 14q0 24 25 52q44 50 66 97q47 103 69 293q18 148 19 416q2 201 6 330l1 21l-22 -22q-231 -221 -457 -221q-144 0 -226 154q-22 42 -36 90l-23 -23 q-225 -221 -465 -221q-114 0 -191 97q-73 93 -73 223q0 163 114 328q31 44 60 73q-2 0 -22 1q-158 12 -185 33q-19 14 -29 52q-4 13 -4 24zM316 451q0 -140 80 -227q66 -72 158 -72q124 0 222 63q69 44 94 107q7 18 22 98q23 128 102 240q12 18 27 36l-238 1l-247 1 q-125 0 -148 -27q-2 -2 -8 -11q-64 -94 -64 -209zM1053 482q0 -195 129 -286q62 -43 118 -44q88 0 179 41q66 30 103 75q58 70 63 194l1 140v125h-3q-49 -8 -106 -15q-93 -8 -257 -12q-153 -4 -166 -11q-5 -2 -10 -11q-51 -91 -51 -196z" />
<glyph unicode="Y" d="M-862 1128q0 26 146 247q107 161 160 222q112 129 237 152q20 4 37 4q90 0 136 -69q27 -40 27 -92q0 -114 -101 -208q-58 -54 -99 -62q-4 -1 -7 -1q-15 0 -15 12q0 13 26 44q42 53 42 109q0 67 -40 97q-21 16 -51 16q-79 0 -203 -155l-210 -282q-41 -54 -55 -58 q-3 -1 -8 -1q-22 0 -22 25z" />
<glyph unicode="Z" horiz-adv-x="1314" d="M85 815q0 60 67 125q49 46 79 46q18 0 18 -17q0 -11 -16 -41q12 -42 44 -57q48 -22 244 -25h117q314 0 367 11q3 0 6 96q6 226 47 412q39 174 136 295q71 89 125 115q14 7 24 7q14 0 14 -15q0 -20 -53 -91q-27 -34 -33 -47q-61 -122 -87 -416q-10 -120 -10 -234l-2 -219 q0 -140 -2 -251l-12 -669q-6 -208 -24 -318q-41 -252 -158 -399q-91 -114 -148 -119q-14 0 -14 14q0 24 25 52q44 50 66 97q47 103 69 293q23 192 25 747v26v9l-18 -18q-228 -223 -483 -239q-18 -1 -36 -1q-127 0 -214 97t-87 234q0 193 171 384l-9 1q-194 0 -229 69 q-9 19 -9 46zM328 457q0 -129 81 -217q8 -10 17 -18q76 -70 173 -70q109 0 209 44q124 56 163 128q31 57 33 183v94v78q0 46 -1 46h-3q-8 -16 -299 -27q-62 -2 -97 -2q-184 0 -210 -34q-61 -78 -65 -194q-1 -6 -1 -11z" />
<glyph unicode="[" d="M-1046 1023q2 41 68 94q42 34 60 34q3 0 43 -14q42 -15 93 -19q14 -1 183 -1q270 0 304 4q36 4 82 22q18 8 26 8q14 0 14 -12q0 -45 -62 -92q-80 -61 -201 -71q-14 -2 -232 -2q-238 0 -283 8q-27 5 -64 19q-29 15 -31 22z" />
<glyph unicode="\" horiz-adv-x="1062" d="M111 379q0 27 47 77q86 93 203 109q21 3 41 3q57 0 193 -28q94 -19 143 -19q62 0 118 39q31 22 45 22q13 0 13 -13q0 -27 -47 -78q-87 -93 -203 -109q-20 -3 -41 -3q-56 0 -194 28q-93 19 -141 19q-74 0 -113 -34q-24 -21 -36 -24q-7 -2 -15 -2q-12 0 -13 13z" />
<glyph unicode="]" horiz-adv-x="1054" d="M86 365q0 175 134 329q107 123 244 172q61 22 115 22q154 0 228 -66q41 -38 41 -88q0 -41 -30 -82q-37 -51 -103 -51q-39 0 -86 39q-52 44 -76 57q-46 24 -104 24q-60 0 -112 -22q-29 -12 -39 -28q-44 -72 -44 -164q0 -168 125 -276q25 -22 51 -37q72 -42 160 -42 q181 0 291 87l65 54q22 15 42 15q11 -4 14 -15q0 -29 -52 -86l-14 -14q-216 -209 -483 -209q-180 0 -290 147q-26 36 -42 72q-35 79 -35 162z" />
<glyph unicode="^" d="M-1247 1128q0 28 187 245q160 185 241 258q99 90 203 115q32 8 62 8q91 0 136 -66q26 -38 26 -86q0 -117 -106 -210q-63 -55 -114 -64q-5 -1 -9 -1q-18 0 -18 13q0 9 26 39q54 61 55 133q-6 94 -80 98q-85 0 -235 -154l-134 -143q-143 -155 -186 -190q-23 -19 -32 -19 q-20 0 -22 24z" />
<glyph unicode="_" horiz-adv-x="870" d="M-336 52q0 33 52 85q42 41 73 47q23 5 338 9h36q339 0 465 -48q42 -16 84 -45q111 -79 147 -208q14 -48 14 -96q0 -130 -95 -261q-100 -139 -246 -194q-72 -26 -146 -26q-114 0 -210 66q-102 70 -117 180q-1 10 -1 23q0 97 89 182q51 50 85 54q17 0 17 -16q0 -20 -21 -48 q-21 -27 -21 -54q0 -82 76 -152q95 -84 221 -86q81 0 141 34q13 8 23 16q43 36 53 139q1 14 1 25q0 173 -146 277q-39 27 -79 43q-115 46 -430 46l-380 -8q-22 0 -23 16z" />
<glyph unicode="`" horiz-adv-x="624" d="M92 669q0 42 71 106q85 77 172 93q16 3 31 3q87 0 102 -125q3 -17 3 -74q0 -328 -9 -395q-19 -134 -121 -234q-56 -55 -95 -59q-14 0 -14 13v3q0 15 20 43q38 53 46 131q5 70 5 363q0 166 -70 166q-45 0 -80 -27q-26 -21 -47 -22q-14 0 -14 15z" />
<glyph unicode="a" horiz-adv-x="1251" d="M86 343q0 172 128 333q101 128 228 184q64 28 118 28q169 0 169 -115q0 -56 -47 -99q-38 -35 -87 -35q-37 0 -80 37q-40 35 -62 42q-12 3 -24 3q-64 0 -109 -31q-29 -20 -52 -105q-14 -53 -14 -98q0 -194 138 -287q69 -46 135 -48q102 0 214 44q97 39 144 97 q50 62 53 159l2 120q9 115 86 210q80 99 131 106q3 1 6 1q13 0 13 -13v-3q0 -20 -28 -56t-34 -62q-11 -43 -17 -685q-4 -330 -17 -455q-30 -305 -151 -472q-43 -58 -99 -105q-41 -34 -67 -34q-14 0 -14 14q0 20 54 91q27 35 33 48q58 118 75 320q9 108 19 550q2 119 5 216 l-19 -18q-118 -118 -268 -185q-127 -56 -249 -56q-121 0 -209 90q-68 70 -94 181q-10 42 -10 88z" />
<glyph unicode="b" horiz-adv-x="1994" d="M80 816q0 54 62 118q50 52 84 52q17 0 17 -17q0 -8 -12 -35q-1 -3 -1 -5q0 -17 15 -39q6 -7 11 -10q80 -34 799 -34q514 0 684 18q102 11 124 29q36 30 60 30q18 0 18 -16q0 -30 -46 -78q-20 -21 -46 -41q-39 -28 -39 -238q0 -133 28 -317q9 -66 9 -95q0 -44 -72 -107 q-55 -47 -81 -47q-14 0 -20 36q-3 20 -20 194l-3 29q-69 -82 -180 -155q-161 -104 -308 -104q-138 0 -221 139q-29 50 -44 105l-23 -23q-186 -186 -400 -216q-34 -5 -64 -5q-116 0 -193 99q-73 93 -73 221q0 180 134 351q13 17 28 34l13 16l-151 14q-55 8 -74 44 q-7 12 -12 29q-3 12 -3 24zM314 457q0 -152 86 -240q64 -65 150 -65q113 0 211 55q33 18 60 42q44 40 63 137q17 88 21 102q33 104 113 208l-222 1l-261 1h-1q-101 0 -126 -12q-18 -8 -33 -30q-55 -84 -61 -182v-17zM1051 482q0 -159 101 -264q64 -66 146 -66h5 q155 0 251 93q84 82 89 210q6 166 48 252q6 14 6 17q-34 -13 -364 -22q-196 -5 -220 -12q-20 -6 -43 -84q-19 -66 -19 -124z" />
<glyph unicode="c" horiz-adv-x="1316" d="M83 808v8q0 63 71 127q48 43 76 43q16 0 16 -16q0 -9 -13 -37q-2 -4 -2 -5q0 -16 17 -38q4 -6 9 -10q45 -34 404 -34q294 0 343 11h2l1 29q8 308 47 472q50 205 167 336q78 88 121 88q14 0 14 -14q0 -25 -50 -85q-19 -22 -24 -31q-91 -149 -107 -626q-5 -155 -5 -512 q0 -203 23 -322q6 -33 6 -56q0 -29 -53 -86q-60 -66 -99 -66q-13 0 -16 18q-1 3 -2 14q-20 122 -26 231q-3 0 -23 -22q-49 -53 -137 -111q-193 -130 -383 -130q-128 0 -215 97q-86 97 -86 237q0 168 139 342l32 39l-37 2h-1q-120 10 -158 28q-51 24 -51 79zM327 458 q0 -131 82 -221q7 -8 15 -15q76 -70 173 -70q91 0 194 38q180 68 205 209q5 24 6 117l2 174q0 35 -1 35l-67 -13q-101 -14 -324 -16q-181 -1 -214 -29q-7 -5 -17 -21q-54 -83 -54 -188z" />
<glyph unicode="d" horiz-adv-x="1249" d="M82 343q0 174 127 334q103 130 236 185q65 27 123 27q126 0 152 -81q6 -16 6 -34q0 -43 -30 -84q-37 -50 -103 -50q-43 0 -77 34q-31 30 -46 37q-22 11 -51 10q-169 -4 -169 -234q0 -146 88 -245q81 -90 195 -90q90 0 195 40q101 38 153 99q43 50 51 109q4 28 4 154v54 v41q0 144 6 288q12 311 62 481q63 214 205 330q42 34 66 34q14 0 14 -14q0 -24 -53 -88q-16 -20 -21 -28q-92 -150 -107 -649q-5 -148 -5 -474q0 -210 23 -334q7 -34 7 -58q0 -43 -72 -105q-55 -48 -81 -48q-12 0 -15 14q0 2 -3 18q-19 120 -25 231q-3 0 -24 -22 q-49 -52 -137 -111q-194 -130 -381 -130q-122 0 -210 92q-65 68 -92 172q-11 45 -11 95z" />
<glyph unicode="e" horiz-adv-x="1310" d="M84 -1q0 25 21 49q30 35 40 82q3 20 5 44q6 81 6 438v10q0 453 40 673q52 297 225 446l8 7q42 34 65 34q15 0 15 -14q0 -22 -32 -63q-55 -68 -76 -127q-3 -6 -5 -13q-54 -166 -67 -515q-6 -174 -6 -454v-21l55 59l40 38q139 128 286 184q84 32 159 32q127 0 214 -96 q86 -96 86 -235q0 -204 -194 -407l49 1q163 0 228 51q30 24 34 25q10 6 24 6q16 0 16 -16q0 -33 -52 -86q-94 -97 -236 -121q-13 -2 -26 -3q-44 -5 -115 -6l-399 9q-213 0 -343 -21q-30 -5 -52 -5q-13 0 -13 15zM270 141h2q162 17 338 19l170 -4q102 0 149 54q58 73 65 182 q1 11 1 21q0 142 -91 233q-76 75 -178 75q-77 0 -173 -47q-169 -82 -217 -247q-5 -19 -9 -38l-18 -139q-10 -51 -32 -94q-7 -14 -7 -15z" />
<glyph unicode="f" horiz-adv-x="1898" d="M80 333q0 180 126 345q98 129 222 184q61 26 113 26q134 0 155 -87q3 -13 3 -27q0 -42 -30 -83q-37 -51 -103 -51q-37 0 -80 36q-40 34 -63 41q-14 4 -29 4q-59 -1 -89 -40q-31 -39 -49 -125q-8 -39 -8 -79q0 -167 104 -266q21 -20 42 -32q44 -27 97 -27q106 0 198 47 q83 44 115 129q7 18 34 124q36 137 111 233q39 49 92 96q123 107 236 107q132 0 154 -84q3 -14 3 -28q0 -44 -30 -86q-37 -50 -102 -50q-46 0 -77 33q-28 29 -39 35q-20 12 -51 12q-72 0 -95 -46q-3 -5 -3 -6q-46 -83 -46 -183q0 -160 94 -259q61 -65 134 -73q10 -1 24 -1 q114 0 210 62q102 66 124 177q7 38 7 273q0 426 42 646q12 62 27 115q47 162 156 279q70 75 114 78q14 0 14 -14q0 -24 -53 -88q-16 -20 -21 -28q-92 -150 -107 -649q-5 -148 -5 -474q0 -200 24 -329q6 -32 6 -56v-12q-4 -48 -77 -107q-51 -41 -76 -41t-38 190q-2 23 -4 60 l-26 -26q-224 -224 -461 -224q-137 0 -219 145q-28 49 -43 103q-67 -83 -180 -153q-154 -95 -304 -95q-114 0 -191 99q-37 48 -60 115q-22 65 -22 135z" />
<glyph unicode="g" horiz-adv-x="1921" d="M82 335q0 178 125 341q98 130 223 185q61 27 114 27q127 0 151 -80q5 -16 5 -32q0 -43 -29 -84q-38 -52 -103 -52q-48 0 -77 33q-26 28 -36 34q-22 13 -56 13q-69 0 -90 -36q-57 -89 -59 -206q0 -195 127 -284q60 -42 111 -42q97 0 184 37q56 25 87 61q50 57 73 173 q28 164 154 303q50 55 110 97q95 65 184 65q104 0 141 -56q16 -24 16 -58q0 -38 -29 -79q-37 -55 -104 -55q-48 0 -79 33q-25 28 -35 34q-22 14 -58 14q-35 0 -70 -19l-4 -2q-66 -94 -66 -215q0 -157 92 -257q54 -59 120 -73q12 -3 38 -3q114 0 213 62q65 42 94 98 q30 57 38 171q8 120 23 171q33 113 137 198q44 36 69 36q14 0 14 -14q0 -21 -20 -45q-36 -44 -48 -113q-9 -55 -9 -135q0 -172 28 -358q9 -58 9 -85q0 -43 -72 -106q-56 -48 -81 -48q-14 0 -20 29q-8 54 -24 229l-48 -49q-27 -26 -56 -49q-197 -160 -391 -160 q-138 0 -221 154q-24 45 -39 94q-154 -173 -345 -228q-70 -20 -138 -20q-104 0 -181 89q-45 52 -71 129q-21 64 -21 133z" />
<glyph unicode="h" horiz-adv-x="1273" d="M86 342q0 172 127 333q101 129 228 185q65 28 120 28q168 0 168 -115q0 -41 -30 -82q-37 -51 -103 -51q-39 0 -81 37q-40 34 -60 40q-12 4 -25 4q-67 0 -110 -31q-29 -21 -51 -102q-15 -52 -15 -101q0 -194 139 -287q69 -46 134 -48q98 0 208 42q96 37 145 94 q45 53 56 161l13 132q22 147 119 242q16 15 33 29q44 36 69 36q14 0 14 -14q0 -21 -19 -44q-35 -41 -48 -111q-11 -62 -11 -157q0 -153 29 -343q8 -58 8 -83q0 -28 -51 -85q-60 -67 -101 -67q-13 0 -18 21l-27 248q-1 0 -46 -42q-239 -227 -502 -227q-122 0 -210 93 q-64 67 -91 171q-11 45 -11 94z" />
<glyph unicode="i" horiz-adv-x="1181" d="M92 357q0 143 105 292q109 155 270 227q105 47 213 47q139 0 250 -82q113 -83 143 -223q8 -37 8 -76q0 -179 -190 -465q-52 -77 -226 -312q-164 -219 -212 -325q-33 -73 -33 -126q0 -61 35 -99q14 -16 14 -24q0 -27 -51 -85q-61 -67 -102 -67q-20 0 -43 47q-21 44 -21 87 q0 118 120 310q70 112 210 299q234 312 295 456q36 86 36 164q0 157 -121 260q-89 76 -206 91q-14 2 -45 2q-78 0 -154 -28q-56 -22 -78 -54q-49 -70 -49 -170q0 -64 42 -113q32 -38 38 -51q11 -21 11 -46q0 -53 -42 -96q-38 -39 -92 -39q-69 0 -104 82q-21 50 -21 117z" />
<glyph unicode="j" horiz-adv-x="1933" d="M55 645q0 37 69 103q76 73 165 110q114 45 294 45q147 0 454 -39q304 -38 452 -38q219 0 304 65l38 30q14 8 30 8q15 0 15 -14q0 -38 -71 -106q-29 -27 -61 -50q-115 -83 -284 -97q-52 -4 -124 -4q-138 0 -414 37q-123 17 -162 17q-3 0 -4 -1l-77 -67 q-206 -186 -290 -331q-87 -148 -87 -308q0 -230 155 -397q146 -158 374 -204q77 -15 158 -15q201 0 365 87q169 89 253 258q36 71 40 117q1 10 1 20q0 34 -35 76q-35 41 -42 66q-3 13 -3 26q0 67 59 109q36 26 75 26q66 0 97 -72q16 -38 16 -85q0 -176 -198 -408 q-80 -94 -154 -155q-282 -232 -615 -232q-258 0 -452 139q-180 130 -238 333q-23 81 -23 167q0 244 192 505q121 165 321 345q11 10 11 11q0 5 -143 11q-41 1 -74 1q-219 0 -303 -63l-39 -31q-14 -9 -32 -9q-13 0 -13 14z" />
<glyph unicode="k" horiz-adv-x="1179" d="M84 -501q0 239 173 454q23 29 50 57q13 13 13 15l-7 4q-118 59 -176 179q-13 27 -21 55q-14 50 -14 100q0 156 140 370q50 77 119 165l241 306q143 187 157 284q2 14 2 26q0 53 -33 92q-13 15 -13 22q0 29 49 85q61 69 103 69q21 0 42 -47q20 -42 20 -81 q0 -142 -202 -411l-128 -164q-227 -284 -287 -408q-43 -86 -43 -161q0 -148 106 -252q103 -100 250 -106h16q76 0 152 28q60 22 81 55q45 77 49 167q0 66 -41 115q-33 38 -38 50q-11 21 -11 48q0 67 59 109q36 26 75 26q68 0 102 -82q21 -50 21 -117q0 -192 -156 -359 q-26 -27 -56 -53q-177 -155 -375 -155q-36 0 -93 12q-8 1 -14 1q-12 0 -46 -46q-84 -114 -96 -265q-2 -22 -2 -44q0 -171 131 -275q86 -69 196 -84q13 -1 39 -1q105 0 181 36q39 19 58 46q48 68 48 170q0 63 -41 112q-33 40 -39 53q-9 20 -9 45q0 87 83 123q29 12 51 12 q68 0 102 -82q21 -51 21 -118q0 -148 -111 -299q-110 -152 -271 -222q-102 -45 -205 -45q-135 0 -247 80q-128 93 -151 248q-4 26 -4 58z" />
<glyph unicode="l" horiz-adv-x="1212" d="M23 68q0 42 70 104q56 49 82 49q8 0 35 -29q36 -40 64 -40q17 0 25 8q2 2 11 13q69 86 194 265l75 107l-23 44q-39 73 -69 104q-47 46 -103 46q-27 0 -65 -36q-37 -35 -59 -40q-7 -2 -13 -2q-16 0 -16 16q0 32 64 98q87 89 169 109q18 5 34 5q80 0 135 -62 q41 -47 122 -202l62 -120q133 -251 149 -277q42 -69 78 -86q8 -4 16 -6q10 -3 22 -3q16 0 52 34q44 42 74 44q16 0 16 -16q0 -32 -63 -98q-85 -89 -164 -109q-17 -4 -33 -4q-68 0 -125 81q-25 36 -100 178l-118 223l-9 -11q-110 -158 -116 -166q-224 -305 -363 -305 q-35 0 -65 29q-37 33 -45 55z" />
<glyph unicode="m" horiz-adv-x="1869" d="M53 646q0 38 75 108q27 26 56 47q127 92 338 101q27 1 55 1q154 0 456 -39q305 -38 456 -39q218 0 302 65l37 30q14 9 31 9q15 0 15 -15q0 -31 -56 -90q-20 -21 -44 -41q-119 -99 -291 -119q-61 -6 -149 -6q-134 0 -568 54q-53 7 -62 7q-182 -117 -245 -185 q-77 -84 -79 -194v-6q0 -168 132 -269q129 -99 341 -99q100 0 237 31q136 32 229 33h15q178 0 279 -74q88 -66 88 -178q0 -156 -136 -323q-115 -142 -263 -218q-99 -50 -180 -50h-23q-206 0 -276 89q-21 26 -21 47q0 43 72 105q55 47 80 47q9 0 19 -19q24 -45 65 -66 q51 -28 141 -34q25 -2 63 -2q140 0 224 96q67 78 67 184q0 153 -173 206q-75 23 -167 23q-97 0 -231 -32t-228 -34h-19q-240 0 -380 122q-123 108 -123 273q0 202 225 422q53 52 137 116q-64 4 -132 5q-219 0 -304 -65l-39 -31q-14 -8 -31 -8q-15 0 -15 15z" />
<glyph unicode="n" horiz-adv-x="1351" d="M80 815q0 55 64 120q51 51 82 51q18 0 18 -17q0 -12 -15 -40q10 -41 35 -55q43 -23 227 -27q71 -1 203 -1q257 0 354 8q137 12 172 39q36 30 60 30q17 0 17 -16q0 -31 -52 -84q-23 -22 -52 -44q-26 -87 -26 -220q0 -148 28 -328q9 -63 9 -93q0 -44 -72 -107 q-55 -47 -81 -47q-9 0 -12 7q-7 14 -28 219q-3 30 -4 45l-25 -25q-219 -214 -463 -242q-31 -4 -61 -4q-128 0 -215 98q-86 96 -86 235q0 178 153 361l19 22l-23 1q-142 8 -185 34q-41 25 -41 80zM325 457q0 -140 91 -230q77 -75 179 -75q182 0 307 102q48 39 67 77 q26 50 33 154q8 116 25 170q8 26 20 50l7 16h-1q-84 -21 -417 -24q-134 -1 -160 -5q-80 -11 -101 -49l-10 -20q-40 -78 -40 -166z" />
<glyph unicode="o" horiz-adv-x="1331" d="M84 366q0 139 100 279q103 144 252 203q80 31 162 31q130 0 242 -78v7q0 267 62 519q18 78 39 130q61 152 167 259q66 66 101 66q14 0 14 -14q0 -23 -29 -59q-55 -67 -83 -130q-105 -233 -105 -764q0 -434 5 -508q4 -50 13 -107l122 -36q49 -12 92 -12q132 0 215 63 q45 34 46 35q15 9 29 9t14 -14q0 -34 -59 -96q-103 -107 -249 -147q-67 -18 -137 -18q-64 0 -165 33q-96 31 -153 31q-53 0 -148 -31q-101 -33 -167 -33q-129 0 -235 82q-108 84 -136 219q-9 39 -9 81zM252 507q0 -168 135 -278q32 -26 64 -42q71 -35 152 -35q50 0 132 25 q60 19 103 29q2 1 2 2l-1 125l-1 127q-52 171 -205 237q-74 33 -156 33q-220 0 -225 -212v-11z" />
<glyph unicode="p" d="M-1081 953q1 32 53 85q92 95 220 113q25 3 50 3q72 0 213 -30q118 -25 185 -25q78 0 141 45q35 25 52 27l4 -1q7 0 7 -12q0 -29 -50 -82q-90 -94 -214 -114q-28 -5 -56 -5q-70 0 -216 30q-117 25 -181 25q-90 0 -124 -31q-44 -41 -71 -41q-13 0 -13 13z" />
<glyph unicode="q" horiz-adv-x="1421" d="M51 -982q0 22 54 90q24 30 29 41q131 251 131 1252q0 213 -18 263q-15 40 -53 40q-44 0 -80 -29q-27 -21 -47 -21q-10 0 -14 14q0 29 53 87q84 92 182 112q20 4 41 4q72 0 92 -83q11 -44 12 -134l1 -79q72 86 193 174q194 139 341 139q145 0 233 -110q74 -93 74 -221 q0 -199 -173 -385l-19 -21h28h15q164 0 233 52q31 23 35 25q11 5 23 5q16 0 16 -16q0 -27 -47 -79q-81 -90 -197 -119q-71 -18 -207 -18l-351 9q-121 0 -203 -9h-6q-35 -452 -82 -625q-31 -110 -85 -195q-59 -94 -131 -149q-37 -28 -59 -28q-14 0 -14 14zM428 139l21 2 q154 19 307 19l137 -3q156 0 199 154q1 6 5 20q10 41 10 84q0 146 -99 237q-66 60 -146 68q-11 1 -23 1q-111 0 -225 -75q-133 -88 -170 -222q-9 -31 -11 -64q0 -16 -5 -221z" />
<glyph unicode="r" horiz-adv-x="1939" d="M84 -1q0 25 20 48q30 33 40 78q4 22 6 49q6 81 6 438v10q0 453 40 673q52 297 225 446l8 7q42 34 65 34q15 0 15 -14q0 -22 -32 -63q-55 -68 -76 -127q-3 -6 -5 -13q-58 -176 -71 -569l-2 -382v-22l42 49q82 86 187 156q137 91 254 91q112 0 193 -107q60 -79 76 -180 l93 95q203 193 368 193q65 0 131 -44q120 -80 128 -255v-12q0 -189 -177 -396l-28 -32l52 1q164 0 231 52q31 23 35 25q10 5 23 5q16 0 16 -16q0 -35 -61 -94q-47 -46 -102 -73q-95 -49 -272 -49h-7l-44 1l-596 8h-45q-359 0 -616 -21q-64 -5 -106 -5q-14 0 -14 15zM267 137 l534 25q24 4 49 14q59 98 62 200v14q0 151 -89 251q-56 63 -122 76q-10 3 -32 3h-10h-14q-110 -10 -200 -100q-115 -114 -126 -295q-7 -108 -48 -180zM931 160h68l386 -7q136 0 184 82l16 32q42 83 42 170q0 138 -87 222q-49 48 -108 59q-16 2 -30 2q-8 1 -14 1l-21 -2 q-169 -28 -265 -226q-14 -29 -61 -152q-12 -30 -20 -46q-41 -77 -90 -135z" />
<glyph unicode="s" horiz-adv-x="1898" d="M82 332q0 181 127 347q97 128 217 183q58 26 107 26q168 0 168 -114q0 -56 -46 -99q-38 -36 -88 -36q-38 0 -82 39q-38 34 -57 40q-10 3 -20 3q-3 0 -12 -1q-62 0 -85 -32q-58 -93 -61 -211q0 -167 105 -267q21 -20 42 -32q45 -26 96 -26q289 0 338 262q28 161 146 300 q110 129 230 164q13 4 25 6q24 5 50 5q101 0 139 -55q16 -25 16 -59q0 -43 -30 -84q-37 -51 -102 -51h-8q-30 0 -70 34q-42 37 -69 44q-13 3 -27 3q-57 -1 -87 -42t-45 -129q-5 -29 -5 -55v-12q0 -156 92 -256q53 -57 119 -72q12 -3 38 -3l36 1h1q188 22 265 151 q24 41 34 89q6 29 6 105v23q0 108 36 182q20 40 52 79q71 88 124 104q7 3 13 3q13 0 13 -13v-3q0 -20 -28 -56t-34 -62q-11 -43 -17 -685q-4 -330 -17 -455q-30 -305 -151 -472q-43 -58 -99 -105q-41 -34 -67 -34q-14 0 -14 14q0 20 54 91q27 35 33 48q64 130 81 406 q4 78 14 501l3 155v8l-22 -22q-228 -221 -454 -221q-150 0 -232 162q-21 40 -34 86q-154 -173 -344 -228q-71 -20 -140 -20q-131 0 -212 130q-42 69 -55 147q-6 35 -6 71z" />
<glyph unicode="t" horiz-adv-x="2052" d="M57 669q0 43 71 106q86 77 173 93q17 3 32 3q76 0 95 -100q8 -42 8 -109v-70q58 77 164 159q177 138 318 138q93 0 172 -82t98 -206q114 133 244 214q119 74 217 74q60 0 127 -43q132 -85 132 -267q0 -199 -186 -407l-20 -22l53 1q163 0 231 52q31 23 35 25q10 5 22 5 q16 0 16 -12q1 -2 1 -4q0 -34 -59 -92q-47 -47 -104 -75q-97 -49 -270 -49h-7l-47 1l-596 8h-45q-358 0 -615 -21q-64 -5 -106 -5q-14 0 -14 15q0 24 19 46q31 34 41 85q4 20 6 44q5 69 5 368q0 161 -69 161q-46 0 -80 -27q-26 -21 -48 -22q-14 0 -14 15zM380 137l533 25 q24 4 49 14q63 90 63 212q0 156 -91 256q-54 60 -120 73q-11 3 -32 3h-11h-13q-115 -11 -206 -105q-109 -112 -120 -290q-6 -90 -32 -147zM1043 160h69l386 -7q136 0 184 82l16 32q42 83 42 170q0 135 -86 220q-49 49 -110 61q-16 2 -29 2q-7 1 -14 1l-21 -2 q-163 -25 -259 -216q-17 -34 -66 -160q-12 -31 -21 -48q-34 -66 -91 -135z" />
<glyph unicode="u" horiz-adv-x="1253" d="M-10 -128q0 148 287 339q62 41 137 83q22 13 22 15l-11 32q-57 154 -60 154l-7 -8h-1q0 2 6 13l-14 34l-35 85q-49 103 -116 103q-33 0 -63 -23q-23 -17 -42 -17q-15 0 -15 16q0 28 47 79q78 85 172 93q9 1 17 1q78 0 125 -81q10 -18 52 -114l11 -25l18 16 q127 120 216 169q88 49 161 49q137 0 211 -99q52 -71 52 -169q0 -185 -168 -377q-99 -113 -268 -220l-176 -110q-129 -86 -207 -182q-84 -103 -84 -213q0 -135 115 -216q41 -29 78 -38q32 -8 62 -8q75 0 109 34q57 56 93 58q14 0 14 -14q0 -34 -61 -99q-94 -101 -210 -135 q-42 -12 -83 -12q-104 0 -186 71q-81 70 -97 184q-1 10 -1 35q0 178 194 395l18 20q96 103 226 190q11 7 11 9q-25 92 -79 251q-8 0 -127 -77q-175 -114 -175 -143q0 -53 40 -81q20 -14 22 -24q0 -24 -43 -76q-57 -69 -112 -78q-54 24 -70 76q-5 17 -5 35zM517 614 q0 -3 29 -72q68 -163 143 -434q7 -24 8 -24q12 0 131 95q34 27 49 41q115 105 115 254q0 121 -83 193q-65 56 -159 56q-100 0 -195 -74q-14 -11 -27 -23q-11 -11 -11 -12z" />
<glyph unicode="v" horiz-adv-x="1961" d="M82 816q0 53 62 117q51 53 86 53q16 0 16 -16q0 -11 -12 -36q-2 -4 -2 -6q0 -15 14 -37q6 -9 12 -11q72 -34 646 -34h33h17q563 0 691 16h5l1 26q9 328 58 508q63 231 211 352q42 34 66 34q14 0 14 -14q0 -26 -49 -84q-20 -23 -25 -32q-92 -151 -107 -657 q-5 -149 -5 -466q0 -213 24 -338q6 -32 6 -54q0 -42 -72 -105q-56 -48 -81 -48t-38 174q-2 28 -5 76l-25 -26q-192 -192 -405 -220q-29 -4 -56 -4q-139 0 -222 149q-25 45 -39 95l-23 -22q-195 -195 -416 -219q-26 -3 -50 -3q-126 0 -205 119q-11 17 -20 35q-39 81 -39 167 q1 180 136 354l25 30q12 14 12 16l-21 2q-149 7 -185 32q-20 15 -30 54q-3 13 -3 23zM317 448q0 -140 86 -229q50 -51 112 -65q11 -2 37 -2q154 0 257 88q34 28 49 56q16 30 33 115q23 119 75 206q25 40 55 78l-485 3q-121 0 -146 -26l-4 -4q-68 -98 -69 -220zM1054 482 q0 -155 92 -254q62 -67 135 -75q10 -1 24 -1q120 0 216 65q98 66 118 174q6 29 8 134l1 167v36q-14 -14 -294 -23q-213 -7 -238 -15q-20 -7 -43 -83q-19 -66 -19 -125z" />
<glyph unicode="w" horiz-adv-x="2045" d="M51 -982q0 22 54 90q24 30 29 41q131 251 131 1252q0 213 -18 263q-15 40 -53 40q-44 0 -80 -29q-27 -21 -47 -21q-10 0 -14 14q0 29 53 87q84 92 182 112q20 4 41 4q76 0 95 -94q8 -40 9 -115l1 -70q203 226 385 282q46 14 85 14q141 0 224 -128q46 -75 59 -159l66 71 q205 205 379 216h18q90 0 163 -71q70 -67 88 -173q5 -31 5 -64q0 -215 -204 -429h36q182 0 248 52q30 23 32 24q11 6 25 6q16 0 16 -17q0 -30 -47 -79q-81 -83 -178 -112q-83 -24 -247 -24l-621 9q-335 0 -536 -16h-8l-1 -8q0 -140 -45 -430q-9 -54 -16 -91 q-45 -231 -172 -375q-66 -76 -114 -85q-5 -1 -9 -1q-14 0 -14 14zM428 136l284 17l178 5q56 5 75 24q15 16 31 59q28 74 28 148q0 147 -86 248q-62 73 -137 82q-10 2 -28 2q-97 0 -193 -79q-115 -95 -141 -239q-7 -35 -7 -72zM1043 160l89 -1l370 -6h2q104 0 151 51 q18 20 37 54q47 86 47 179q0 125 -72 208q-66 75 -163 75q-60 0 -136 -46q-67 -42 -111 -107q-43 -64 -92 -195q-19 -50 -29 -71q-34 -69 -93 -141z" />
<glyph unicode="x" horiz-adv-x="1978" d="M84 818q0 54 63 117q51 51 83 51q17 0 17 -16q0 -8 -12 -35q-1 -4 -1 -5q0 -27 22 -45q9 -8 21 -11q119 -28 716 -28q691 0 830 33q26 6 36 13q41 31 61 31q17 0 17 -16q0 -33 -53 -85q-24 -23 -56 -47q-11 -36 -12 -76q-1 -23 -1 -60l-17 -886q-1 -9 -1 -15 q-16 -263 -65 -406q-52 -153 -160 -262q-64 -66 -102 -66q-13 0 -13 13q0 22 54 92q26 33 32 45q67 136 82 425l17 629l1 19l-23 -23q-221 -212 -441 -220h-15q-140 0 -222 148q-26 45 -40 96l-23 -22q-195 -195 -416 -219q-26 -3 -50 -3q-126 0 -205 119q-11 17 -20 35 q-39 79 -39 168q0 176 135 351q19 24 40 48l-147 14q-60 10 -78 44q-7 12 -11 29q-4 13 -4 26zM318 448q0 -140 86 -229q50 -51 112 -65q11 -2 37 -2q154 0 257 88q34 28 49 56q20 37 34 116q18 103 62 184q14 25 31 51q32 45 36 48l-484 3h-1q-123 0 -147 -26q-2 -2 -3 -4 q-68 -94 -69 -220zM1055 485q0 -197 129 -289q62 -43 118 -44q96 0 186 43q58 28 94 70q57 66 64 181q1 24 1 58q1 98 12 136q12 42 34 84q0 -11 -301 -19q-273 -8 -281 -18q-31 -42 -48 -126q-8 -40 -8 -76z" />
<glyph unicode="y" horiz-adv-x="1421" d="M57 669q0 43 71 106q86 77 173 93q17 3 32 3q79 0 96 -108q7 -41 7 -109q0 -78 1 -78q5 0 25 25q68 84 201 172q155 103 292 115l24 1q141 0 227 -119q57 -78 68 -175q2 -11 2 -38q0 -208 -194 -407l49 1q160 0 228 51q31 24 36 26q10 5 22 5q16 0 16 -15q0 -33 -52 -87 q-94 -98 -235 -120q-13 -3 -27 -4q-44 -5 -115 -6l-399 9q-213 0 -343 -21q-31 -5 -52 -5q-13 0 -13 16q0 23 19 46q31 34 41 83q4 20 6 45q5 69 5 368q0 161 -69 161q-46 0 -80 -27q-26 -21 -48 -22q-14 0 -14 15zM382 141h2q163 17 339 19l169 -4q77 0 125 32q13 9 22 19 q59 69 68 186q1 12 1 22q0 184 -141 266q-68 40 -128 40q-77 0 -172 -45q-173 -83 -220 -254q-5 -16 -8 -33q-2 -12 -14 -111q-9 -78 -43 -137z" />
<glyph unicode="z" horiz-adv-x="1333" d="M82 815q0 54 62 118q51 53 85 53q17 0 17 -16q0 -13 -15 -41q10 -38 33 -52q44 -26 243 -30q63 -1 157 -1q278 0 372 7q141 11 178 39q41 31 61 31q17 0 17 -16q0 -31 -49 -82q-25 -25 -60 -50q-10 -35 -12 -83q-1 -21 -1 -53q-7 -650 -14 -800q-13 -317 -58 -474 q-50 -173 -171 -295q-64 -66 -102 -66q-13 0 -13 13q0 21 52 89q27 35 33 48q63 124 81 386q7 106 17 565l1 60q1 35 1 70v7l-18 -18q-217 -212 -464 -237q-28 -3 -55 -3q-128 0 -215 97q-86 96 -86 235q0 189 172 384q-142 9 -175 19q-44 13 -63 51q-11 23 -11 45zM327 458 q0 -131 82 -221q7 -8 15 -15q76 -70 173 -70q91 0 196 40q97 36 149 94q53 59 59 165q1 23 1 79q2 94 24 147l19 41q0 1 -2 1l-97 -12q-104 -9 -299 -10q-196 -1 -236 -20q-15 -8 -28 -27q-56 -82 -56 -192z" />
<glyph unicode="{" d="M-1724 1022q0 38 64 92q44 37 65 37l102 -19q40 -5 90 -10q57 -4 443 -4h70q452 0 527 5q72 5 157 25q18 3 23 3q11 0 11 -13q0 -22 -34 -63q-47 -57 -109 -69q-115 -23 -225 -27q-106 -4 -466 -4q-450 0 -520 5q-55 4 -133 18q-57 10 -62 15q-3 3 -3 9z" />
<glyph unicode="|" d="M-1042 -459q0 148 174 323q47 46 124 113q159 138 169 138q4 1 8 1q20 0 23 -21q0 -24 -129 -155l-11 -11q-168 -173 -200 -237q-16 -32 -16 -68q0 -64 66 -77q12 -3 26 -3q69 0 133 56q33 29 46 31q13 0 13 -19q0 -63 -74 -137q-80 -81 -170 -97q-16 -3 -32 -3 q-75 0 -119 62q-31 44 -31 104z" />
<glyph unicode="}" d="M-759 -434q0 143 169 308q45 45 113 102q165 140 186 140q19 0 21 -23q0 -26 -89 -111q-119 -114 -140 -136q-117 -123 -117 -198q0 -64 67 -79q15 -3 30 -3q67 0 129 54q34 28 46 29q13 0 13 -17q0 -62 -75 -135q-80 -80 -168 -95q-17 -3 -32 -3q-82 0 -125 65 q-28 42 -28 102z" />
<glyph unicode="~" horiz-adv-x="632" d="M90 -982q0 22 54 90q24 30 29 41q120 229 130 1104q1 73 1 148q0 213 -18 263q-15 40 -53 40q-44 0 -80 -29q-27 -21 -47 -21q-10 0 -14 14q0 41 70 106q85 78 168 94q16 3 31 3q62 0 88 -51q14 -29 21 -74q2 -23 2 -228q0 -763 -82 -1094q-38 -151 -96 -243 q-59 -94 -131 -149q-37 -28 -59 -28q-14 0 -14 14z" />
<glyph unicode="&#xa1;" horiz-adv-x="784" d="M-614 15q0 29 43 77q31 34 64 49q28 13 222 13l74 2q81 0 115 16q42 19 119 102q136 152 254 203q62 27 123 27q150 0 257 -115q109 -116 119 -291v-30q0 -202 -137 -359q-102 -118 -233 -159q-47 -15 -90 -15q-149 0 -216 117q-30 53 -30 97q0 103 90 193q51 51 85 57h4 q17 0 17 -16q0 -21 -21 -48q-25 -32 -25 -65q0 -51 38 -103q59 -82 173 -82q106 0 151 77q11 17 21 43q24 66 24 142q0 165 -97 285q-78 95 -181 116q-30 6 -60 6q-60 0 -102 -22q-30 -16 -104 -95q-102 -108 -166 -153q-97 -69 -195 -77l-62 -1h-1l-238 -6q-31 0 -34 8 q-1 3 -1 7z" />
<glyph unicode="&#xa2;" horiz-adv-x="1218" d="M-248 756q0 42 68 98q34 28 55 34l377 11q47 1 89 1q220 0 334 -33q210 -61 270 -255q16 -52 16 -105q0 -124 -89 -253q-98 -144 -245 -200q-75 -28 -153 -28q-109 0 -206 64q-116 76 -122 192v12q0 97 87 182q51 50 87 54q17 0 17 -16q0 -19 -21 -45q-21 -28 -21 -57 q0 -80 74 -150q95 -85 224 -87q83 0 142 35q12 7 21 15q42 36 53 138q1 14 1 26q0 124 -84 222q-75 87 -190 113q-106 27 -298 27l-459 -11q-23 0 -25 8q-2 3 -2 8z" />
<glyph unicode="&#xa3;" horiz-adv-x="905" d="M-911 -850q0 71 75 127q39 29 60 29q16 0 16 -20q-1 -11 -1 -19q0 -59 62 -92q40 -21 90 -21q110 0 203 113q78 94 142 252q44 107 101 282q43 136 62 189q-258 8 -304 9q-44 1 -92 1h-54q-56 0 -60 7q-2 3 -2 9q0 29 44 77q31 33 63 48q16 8 44 8h40h50l326 -7h7l15 30 q112 228 285 369q171 139 343 139q132 0 174 -119q14 -42 14 -89q0 -144 -123 -277q-75 -80 -173 -131q-144 -72 -431 -76l-52 -1l-97 -293q-75 -206 -167 -344q-96 -143 -217 -238q-80 -63 -156 -89q-51 -18 -102 -18q-102 0 -154 62q-31 37 -31 83zM67 138h34 q315 0 426 43q97 38 112 129q4 20 4 43q0 83 -48 135q-39 43 -101 43q-188 0 -312 -172q-51 -70 -95 -172q-20 -44 -20 -49z" />
<glyph unicode="&#xa5;" horiz-adv-x="1218" d="M-511 -851q0 34 9 53q23 46 76 84q31 22 49 22q15 0 16 -15l-1 -33q0 -32 30 -71q53 -65 155 -65q113 0 195 89q115 125 209 412l107 348l17 53q-2 2 -43 2q-249 8 -508 8h-123q-12 5 -13 12v6q4 46 71 100q21 16 35 23t34 8h41h56h52q212 0 458 -7l18 36 q128 251 314 388q158 116 320 116q102 0 150 -85q31 -52 31 -126q0 -133 -111 -261q-144 -167 -391 -206q-95 -15 -223 -15l-53 -1l-50 -166q-110 -373 -228 -548q-38 -56 -96 -121q-194 -215 -386 -215q-113 0 -175 67q-42 45 -42 108zM519 175h34q321 0 436 48 q37 15 62 37q38 32 43 116v11q0 107 -66 156q-34 25 -78 25q-191 0 -316 -171q-39 -54 -74 -126q-41 -82 -41 -96z" />
<glyph unicode="&#xa6;" horiz-adv-x="2107" d="M85 815q0 60 67 125q49 46 79 46q18 0 18 -17q0 -11 -16 -41q12 -42 44 -57q48 -22 244 -25h117q314 0 367 11q3 0 6 96q6 226 47 412q39 174 136 295q71 89 125 115q14 7 24 7q14 0 14 -15q0 -23 -25 -53q-47 -54 -71 -112q-38 -90 -59 -239q-21 -139 -28 -366l-2 -395 v-1v-22l55 58l21 20q151 138 302 198q85 33 159 33q115 0 200 -85q92 -92 108 -229q2 -22 2 -44q0 -170 -124 -330q-102 -131 -235 -188q-66 -28 -126 -28q-104 0 -140 55q-15 22 -15 52q0 52 43 95q39 38 93 38q37 0 79 -34q41 -31 65 -36q9 -2 19 -2q59 0 101 27l6 4 q28 20 51 102q15 55 15 105q0 170 -125 274q-68 57 -153 57q-108 0 -218 -70q-139 -89 -177 -230q-9 -36 -11 -73q-3 -65 -7 -390q-3 -217 -17 -349q-26 -248 -102 -388q-27 -50 -65 -98q-94 -114 -148 -119q-14 0 -14 14q0 24 25 52q44 50 66 97q47 103 69 293 q23 192 25 747v26v9l-18 -18q-228 -223 -483 -239q-18 -1 -36 -1q-127 0 -214 97t-87 234q0 193 171 384l-9 1q-194 0 -229 69q-9 19 -9 46zM328 457q0 -129 81 -217q8 -10 17 -18q76 -70 173 -70q109 0 209 44q124 56 163 128q31 57 33 183v94v78q0 46 -1 46h-3 q-8 -16 -299 -27q-62 -2 -97 -2q-184 0 -210 -34q-61 -78 -65 -194q-1 -6 -1 -11z" />
<glyph unicode="&#xa7;" horiz-adv-x="2037" d="M80 342q0 166 120 324q101 134 233 192q69 30 131 30q150 0 159 -103q1 -6 1 -13q0 -66 -61 -108q-36 -25 -73 -25t-80 37q-40 35 -62 42q-12 3 -24 3q-58 0 -103 -28q-9 -6 -13 -11q-55 -72 -60 -184v-12q0 -154 101 -255q78 -79 183 -79q94 0 203 43q97 39 145 98 q49 62 54 171v143q0 468 38 681q7 37 16 77q38 173 135 295q90 113 144 121q3 1 5 1q15 0 15 -15q0 -19 -24 -49q-53 -64 -82 -146q-67 -189 -77 -575q-3 -87 -3 -418l65 66q153 145 317 211q84 32 155 32q116 0 201 -85q92 -92 108 -229q2 -22 2 -44q0 -174 -128 -334 q-103 -130 -235 -185q-65 -27 -122 -27q-106 0 -142 56q-13 21 -13 50q0 56 46 98q39 36 89 36q38 0 80 -34q39 -31 63 -36q10 -2 20 -2q112 0 147 95q25 65 26 143q0 127 -74 223q-23 29 -51 51q-71 57 -153 57q-106 0 -216 -71q-138 -89 -177 -231q-10 -34 -12 -71 q-5 -68 -5 -354q-1 -351 -43 -543q-44 -205 -143 -328q-80 -100 -135 -117q-7 -2 -13 -2q-14 0 -14 14q0 19 54 91q27 37 33 50q61 124 77 359q7 98 17 534l4 181v9l-17 -17q-210 -202 -447 -236q-38 -5 -73 -5q-120 0 -208 91q-66 68 -93 173q-11 45 -11 94z" />
<glyph unicode="&#xa8;" d="M-831 -413q0 72 70 149q74 81 157 93q11 2 22 2q89 0 134 -68q26 -40 26 -91q0 -84 -80 -165q-71 -73 -146 -84q-9 -1 -18 -1q-100 0 -143 74q-22 38 -22 91zM-718 -326q0 -94 88 -128q28 -11 49 -11q35 0 41 16q4 9 4 30q0 38 -28 79q-39 57 -110 57q-34 0 -40 -16 q-4 -9 -4 -27z" />
<glyph unicode="&#xa9;" d="M-813 -19q0 75 67 153q73 86 162 97q11 1 21 1h2q79 0 126 -61q32 -43 32 -98q0 -76 -70 -155q-74 -83 -160 -95q-11 -1 -22 -1q-80 0 -127 63q-31 42 -31 96zM-699 75q0 -39 27 -81q39 -58 110 -58q33 0 40 15q5 10 5 33q0 44 -32 84q-39 51 -108 51q-32 0 -39 -16 q-3 -9 -3 -28z" />
<glyph unicode="&#xaa;" d="M-1241 1568q0 13 73 84q52 51 63 51q13 0 85 -74q50 -51 50 -61q0 -16 -81 -91q-47 -44 -54 -44q-13 0 -85 73q-51 51 -51 62zM-1058 1307q0 12 74 84q51 51 61 51q14 0 86 -74q49 -51 49 -61q0 -13 -70 -82q-53 -53 -65 -53q-15 0 -90 79q-45 48 -45 56zM-876 1568 q0 15 76 87q50 48 60 48q13 0 85 -73q51 -52 51 -62q0 -16 -82 -92q-46 -43 -54 -43q-11 0 -82 70q-54 54 -54 65z" />
<glyph unicode="&#xab;" horiz-adv-x="854" d="M106 1063q0 20 23 48q40 47 54 106q12 54 12 132l-1 126q0 31 2 36q19 55 87 108q42 32 63 32q12 0 14 -11l3 -143q0 -153 -44 -246q-25 -52 -68 -104q-57 -68 -109 -92q-13 -7 -21 -7q-13 0 -15 15zM420 1062q0 18 23 48q44 58 57 134q8 46 8 105l-1 126q0 31 2 36 q19 55 88 108q41 32 63 32q11 0 13 -12l4 -138q0 -156 -47 -253q-25 -50 -66 -101q-49 -60 -103 -89q-17 -10 -27 -10q-11 0 -14 14z" />
<glyph unicode="&#xac;" horiz-adv-x="1044" d="M102 218q0 29 45 80q86 97 211 113q21 2 43 2q56 0 195 -29q94 -19 142 -19q80 0 117 34q23 22 34 25q9 4 21 4q13 0 13 -13q-1 -28 -49 -79q-89 -96 -207 -111q-19 -2 -38 -2q-65 0 -197 28q-95 20 -148 20q-69 0 -123 -40q-31 -22 -46 -22q-11 0 -13 9zM102 532 q0 27 44 77q84 97 206 114q22 3 44 3q64 0 197 -28q96 -20 150 -20q74 0 115 36q25 22 37 26q7 2 15 2q13 0 13 -14q-1 -28 -49 -79q-89 -96 -207 -111q-19 -2 -38 -2q-45 0 -217 32q-93 17 -127 17q-68 0 -124 -40q-32 -23 -46 -23q-11 0 -13 10z" />
<glyph unicode="&#xad;" d="M-962 1568q0 15 75 87q50 48 60 48q13 0 85 -73q51 -52 51 -62q0 -16 -82 -92q-46 -43 -54 -43q-11 0 -82 70q-53 54 -53 65zM-779 1307q0 14 73 85q51 50 62 50q13 0 83 -72q52 -53 52 -65q0 -10 -68 -78q-55 -55 -67 -55q-16 0 -88 75q-47 50 -47 60zM-596 1568 q0 14 74 86q51 49 61 49q13 0 85 -74q50 -51 50 -61q0 -16 -81 -91q-47 -44 -54 -44q-12 0 -81 68q-54 55 -54 67z" />
<glyph unicode="&#xae;" horiz-adv-x="1167" d="M59 365v18q0 135 103 276q104 144 254 209q90 38 179 38q198 0 320 -133q120 -132 120 -343q0 -82 -13 -171q-59 -401 -391 -815q-102 -127 -214 -235q-60 -58 -92 -58q-15 0 -15 15q0 32 67 101q490 502 490 1025q0 206 -121 331q-112 115 -284 115q-131 0 -186 -56 q-12 -12 -19 -27q-29 -58 -29 -133q0 -124 84 -223q80 -94 206 -121q41 -9 81 -9q75 0 150 37q30 15 42 15q13 0 13 -15q0 -32 -51 -84q-92 -96 -228 -116q-32 -5 -64 -5q-171 0 -292 119q-103 101 -110 245z" />
<glyph unicode="&#xaf;" d="M-874 1568q0 15 75 87q50 48 60 48q13 0 85 -73q51 -52 51 -62q0 -16 -82 -92q-46 -43 -54 -43q-11 0 -83 72q-52 52 -52 63zM-691 1307l1 8q7 12 77 80q48 47 57 47q14 0 87 -77q48 -50 48 -59q0 -11 -68 -79q-55 -55 -67 -55q-21 0 -134 127zM-508 1568q0 14 74 86 q51 49 61 49q13 0 85 -74q50 -51 50 -61q0 -16 -81 -91q-47 -44 -54 -44q-12 0 -81 68q-54 55 -54 67z" />
<glyph unicode="&#xb0;" d="M-1271 292q0 29 51 82q90 94 215 115q28 4 57 4q74 0 203 -29q118 -26 196 -26q82 0 120 32q30 25 35 28q14 9 34 11h2h4q7 0 8 -12q0 -28 -50 -80q-90 -96 -213 -117q-29 -5 -58 -5q-71 0 -206 30q-119 26 -191 26q-90 0 -135 -40q-26 -24 -33 -27q-11 -5 -26 -5 q-13 0 -13 13z" />
<glyph unicode="&#xb1;" horiz-adv-x="436" d="M87 1277q0 149 112 279q63 73 114 92q10 3 17 3q14 0 14 -13q0 -20 -30 -58q-45 -57 -55 -107q-5 -24 -5 -50q0 -118 80 -204q10 -11 10 -17q0 -43 -73 -105q-55 -49 -81 -49q-11 0 -39 40q-64 88 -64 189z" />
<glyph unicode="&#xb2;" horiz-adv-x="436" d="M90 1062q0 21 30 60q44 56 55 105q5 24 5 52q0 115 -79 202q-10 10 -10 17q0 44 72 106q55 48 80 48q14 0 45 -43q59 -85 60 -186q2 -147 -111 -278q-63 -72 -116 -92q-10 -5 -17 -5q-10 0 -14 14z" />
<glyph unicode="&#xb3;" horiz-adv-x="1157" d="M12 -769q0 52 248 274l56 51l199 187q232 232 300 446q33 103 33 209q0 151 -108 248q-98 89 -234 89q-69 0 -137 -26q-42 -17 -58 -39q-40 -55 -46 -142q-1 -10 -1 -19q0 -31 34 -62q35 -33 44 -52q8 -19 8 -41q0 -39 -29 -80q-38 -53 -106 -53q-74 0 -104 69 q-14 32 -14 76q0 182 144 338q116 125 269 176q70 23 132 23q143 0 249 -89q122 -109 124 -276q0 -352 -348 -736q-91 -102 -304 -298l-111 -102l95 8h26q87 0 212 -21l63 -11q61 -9 107 -9q123 0 224 82l66 56q24 18 43 18q11 0 14 -11q1 -2 1 -4q0 -39 -80 -116 q-114 -110 -252 -162q-82 -31 -153 -31q-56 0 -187 22q-108 19 -188 19q-107 0 -186 -19q-19 -5 -32 -5t-13 13z" />
<glyph unicode="&#xb4;" d="M-1250 1q0 13 73 84q53 51 63 51q13 0 84 -72q51 -53 51 -63q0 -12 -74 -84q-51 -51 -61 -51q-14 0 -87 76q-49 50 -49 59zM-901 1l1 8q7 12 77 80q49 47 57 47q13 0 84 -72q51 -53 51 -63q0 -13 -74 -85q-51 -50 -61 -50q-18 0 -134 127z" />
<glyph unicode="&#xb5;" d="M-588 1560q0 14 76 86q50 48 59 48q14 0 86 -73q49 -51 49 -61q0 -14 -72 -85q-52 -51 -63 -51q-12 0 -85 74q-50 52 -50 62zM-414 1307q0 12 74 84q51 51 61 51q14 0 86 -74q49 -51 49 -61q0 -13 -70 -82q-53 -53 -65 -53q-15 0 -90 79q-45 48 -45 56zM-240 1560 q0 12 74 84q51 50 61 50q15 0 89 -76q46 -49 46 -58q0 -14 -77 -89q-49 -47 -57 -47q-15 0 -90 78q-46 49 -46 58z" />
<glyph unicode="&#xb7;" horiz-adv-x="487" d="M124 436q0 13 74 84q52 51 62 51q13 0 83 -71q52 -53 52 -64q0 -13 -72 -84q-52 -51 -63 -51q-14 0 -88 78q-48 48 -48 57z" />
<glyph unicode="&#xb8;" d="M-1271 373q2 37 65 89q43 36 62 36q6 0 42 -13q39 -14 92 -19q20 -2 259 -2q252 0 295 6q29 5 74 22q16 6 24 6q12 0 12 -12q0 -32 -41 -73q-64 -66 -180 -84q-40 -6 -126 -7h-174q-257 0 -302 7q-32 4 -80 22q-21 15 -22 22z" />
<glyph unicode="&#xb9;" horiz-adv-x="522" d="M125 193q0 27 51 84q61 69 103 69q14 0 44 -43q59 -86 59 -186q0 -149 -112 -278q-62 -72 -113 -92q-10 -4 -17 -4q-13 0 -15 15q0 20 30 56q44 55 55 105q5 24 5 53q0 118 -79 203q-11 11 -11 18z" />
<glyph unicode="&#xba;" horiz-adv-x="487" d="M124 155q0 12 74 84q52 51 62 51q14 0 87 -77q48 -49 48 -59q0 -12 -68 -80q-54 -54 -67 -54q-16 0 -89 78q-47 48 -47 57z" />
<glyph unicode="&#xbb;" horiz-adv-x="854" d="M106 -765q0 19 24 49q44 55 57 124q9 47 9 109l-3 140q0 60 78 125q51 42 76 42q12 0 15 -54q1 -33 1 -108q0 -203 -98 -326q-13 -16 -36 -41q-57 -63 -99 -73q-4 -1 -8 -1q-14 0 -16 14zM420 -766q0 23 22 50q37 43 51 93q16 58 16 149l-2 136q0 54 76 117q52 45 77 45 q13 0 15 -47q2 -30 2 -101q0 -221 -100 -343q-11 -13 -34 -38q-65 -70 -109 -74q-13 0 -14 13z" />
<glyph unicode="&#xbc;" horiz-adv-x="966" d="M92 669q0 41 68 104q83 79 168 95q16 3 30 3q63 -3 113 -10q99 -7 283 -7q191 0 370 14q29 3 50 3q15 0 15 -14q0 -29 -52 -85q-52 -58 -93 -67q-65 -14 -395 -18q-30 -1 -51 -1l-126 2l-5 -340q-2 -49 -5 -71q-19 -134 -121 -234q-56 -55 -95 -59q-14 0 -14 13v3 q0 15 20 43q38 53 46 131q5 66 5 363q0 110 -30 146l-6 6q-12 11 -36 12q-8 1 -20 1q-22 0 -57 -26q-29 -22 -48 -22q-14 0 -14 15z" />
<glyph unicode="&#xbd;" horiz-adv-x="557" d="M119 -2q0 15 22 48q39 56 44 128q5 66 5 448q0 297 12 448q10 119 28 225q49 289 210 433q12 11 24 20q42 34 66 34q14 0 14 -15q0 -19 -32 -60q-57 -73 -80 -138q-70 -211 -74 -714v-90q0 -423 -9 -488q-19 -134 -120 -233q-57 -56 -95 -60q-15 0 -15 14z" />
<glyph unicode="&#xbe;" horiz-adv-x="1157" d="M112 -3q0 20 32 63q57 80 141 95q276 48 413 156q33 26 48 49q48 73 48 175q0 104 -105 162q-75 41 -172 41q-113 0 -216 -92l-82 -76q-33 -26 -57 -26q-12 4 -14 15q0 35 86 122q120 122 253 184q73 35 144 41q227 0 303 -125q28 -47 28 -101q0 -210 -192 -398 q-63 -63 -143 -117q38 -8 179 -12q15 -1 25 -1q87 0 151 35q39 22 76 57l22 21q49 43 77 43q14 0 14 -15q0 -29 -66 -100q-110 -119 -248 -175q-84 -34 -163 -34q-37 0 -208 13q-13 1 -21 1l-108 4q-122 0 -205 -15q-15 -3 -27 -3q-9 0 -13 13z" />
<glyph unicode="&#xbf;" horiz-adv-x="1314" d="M44 -1q0 42 140 175l96 89l164 154q283 276 363 512q10 29 17 58q23 92 23 177q0 153 -108 249q-97 88 -224 88q-96 0 -162 -40q-12 -7 -19 -14q-28 -28 -45 -103q-8 -36 -8 -68q0 -30 34 -63q35 -34 44 -55q7 -18 7 -39q0 -41 -30 -81q-38 -51 -105 -51q-71 0 -102 68 q-16 34 -16 77q0 137 101 281q103 148 253 215q91 41 184 41q143 0 247 -93q114 -109 116 -269q0 -241 -146 -485q-79 -133 -223 -294q48 -8 80 -33q65 -51 155 -203q60 -102 119 -131q18 -9 34 -9q84 0 168 68q55 46 60 49q19 13 35 13q15 0 15 -13q0 -36 -75 -111 q-106 -107 -226 -152q-59 -22 -110 -22q-77 0 -154 107q-10 13 -81 126q-65 104 -114 130q-23 12 -47 12q-20 0 -30 -8l-15 -15l-286 -272q-80 -80 -115 -80q-14 0 -14 15z" />
<glyph unicode="&#xc0;" horiz-adv-x="1132" d="M56 -460q0 24 60 99q30 36 37 49q90 158 121 505q25 280 25 832q0 159 -28 197q-16 21 -47 21q-40 0 -76 -28q-27 -21 -46 -21q-16 0 -14 17q4 38 65 98q89 88 188 101l24 1h1q62 -4 85 -68q10 -30 14 -75q0 -9 2 -35v-22q108 87 191 109q44 12 93 12q97 0 159 -75 q48 -60 48 -141q0 -171 -171 -344l-19 -20q71 -10 120 -75q43 -58 43 -136q0 -236 -253 -423q-122 -90 -250 -137l-46 -15q-62 -207 -179 -339q-17 -19 -36 -38q-63 -63 -96 -63q-15 0 -15 14zM415 109l1 -1q52 0 175 58q88 41 119 72q44 43 52 140q1 10 1 18q0 98 -64 153 q-44 38 -104 38q-98 0 -125 -56q-16 -31 -20 -103q-8 -169 -29 -292q-3 -16 -6 -27zM458 632l54 43q33 23 77 45q107 56 147 101q54 61 54 155q0 95 -67 149q-48 39 -115 39q-56 0 -105 -23q-13 -6 -16 -11q-29 -49 -29 -493v-5z" />
<glyph unicode="&#xc1;" horiz-adv-x="696" d="M211 193q0 24 29 57q42 48 58 88q20 55 20 134q0 114 -41 284q-41 169 -48 253q-4 39 -4 79q0 182 122 330q64 78 120 101q12 5 19 5q14 0 14 -14q0 -21 -30 -59q-48 -59 -64 -114q-12 -46 -12 -102q0 -113 43 -301q41 -180 47 -266q2 -27 2 -53q0 -182 -122 -331 q-63 -77 -119 -101q-11 -5 -19 -5q-12 4 -15 15z" />
<glyph unicode="&#xc2;" horiz-adv-x="1323" d="M111 379q0 29 53 82q140 132 307 133q87 0 256 -36q142 -30 210 -30q117 0 183 52q33 27 40 30q9 4 20 4q13 0 13 -13q0 -29 -50 -79q-128 -132 -297 -136h-13q-90 0 -242 33q-148 33 -235 33q-104 0 -173 -53q-35 -27 -45 -31q-7 -2 -14 -2q-12 0 -13 13z" />
<glyph unicode="&#xc3;" horiz-adv-x="522" d="M108 718q0 13 72 83q53 52 64 52q12 0 82 -71q52 -53 52 -64q0 -15 -78 -90q-48 -45 -56 -45q-15 0 -88 76q-48 50 -48 59zM125 193q0 27 51 84q61 69 103 69q14 0 44 -43q59 -86 59 -186q0 -149 -112 -278q-62 -72 -113 -92q-10 -4 -17 -4q-13 0 -15 15q0 20 30 56 q44 55 55 105q5 24 5 53q0 118 -79 203q-11 11 -11 18z" />
<glyph unicode="&#xc4;" horiz-adv-x="1216" d="M39 -351q0 225 187 416l19 18q20 65 22 197q1 62 1 262q0 161 -69 161q-46 0 -80 -27q-26 -21 -48 -22q-14 0 -14 15q0 43 71 106q86 77 173 93q17 3 32 3q79 0 96 -108q7 -41 7 -109q0 -78 1 -78q2 0 22 24q31 35 76 75q179 158 342 200q51 14 97 14q118 0 206 -91 q67 -69 94 -174q11 -45 11 -95q0 -172 -125 -331q-103 -131 -236 -187q-66 -27 -125 -27q-61 0 -123 34q-63 36 -97 46q-46 13 -107 13q-182 0 -233 -122q-2 -4 -7 -17q-25 -68 -25 -147q0 -203 138 -351q109 -116 252 -148l22 -4q38 -7 80 -7q103 0 184 35q37 16 45 33 q10 22 10 51q0 53 -32 89q-13 15 -13 22q0 41 71 104q56 49 81 49q13 0 34 -31q27 -40 27 -91q0 -99 -94 -212q-109 -129 -270 -185q-90 -32 -181 -32q-219 0 -369 160q-114 121 -145 283l-4 28q-4 32 -4 65zM409 199q91 36 140 43q28 4 60 4q111 0 189 -45q56 -32 67 -36 q33 -13 73 -13q72 0 113 31q28 23 50 101q15 52 15 101q0 160 -102 259q-68 67 -153 76q-11 1 -24 1q-80 0 -176 -49q-165 -84 -213 -248q-10 -36 -19 -123q-5 -57 -20 -102z" />
<glyph unicode="&#xc5;" horiz-adv-x="819" d="M-614 16q0 22 26 59q52 74 144 74l415 -7q454 0 568 62q36 21 52 53q25 51 25 117q0 161 -128 234q-62 36 -116 36q-69 0 -126 -49q-39 -33 -49 -38q-14 -7 -28 -7h-1q-17 0 -17 16q0 41 79 110q97 85 197 110q30 7 55 7q123 0 206 -91q78 -87 78 -211q0 -152 -118 -287 q-35 -39 -77 -73q-86 -69 -207 -99q-164 -40 -484 -40l-464 8h-11q-19 0 -19 16z" />
<glyph unicode="&#xc6;" horiz-adv-x="905" d="M-248 757q0 29 45 77q30 32 62 47q25 8 52 8l197 -7q190 0 344 35q86 20 116 45q27 23 42 92q7 32 7 62q0 164 -132 236q-61 32 -113 32q-69 0 -125 -48q-39 -34 -50 -39q-14 -7 -28 -7q-16 0 -16 17q0 44 80 113q97 83 201 107q29 7 55 7q109 0 190 -81q88 -88 88 -223 q0 -194 -175 -340q-89 -74 -173 -103q-75 -27 -258 -45q-89 -9 -162 -9l-205 7q-37 0 -40 9q-2 3 -2 8z" />
<glyph unicode="&#xc7;" horiz-adv-x="610" d="M-719 30q0 42 65 95q45 37 68 37q5 0 35 -17l431 -244q129 -71 177 -110q65 -54 99 -120q36 -70 36 -151q0 -150 -169 -291q-31 -25 -65 -48q-119 -78 -229 -78q-144 0 -209 106q-28 45 -28 81q0 82 82 160q51 48 83 51q17 0 17 -17q0 -15 -20 -46q-12 -17 -12 -30 q0 -54 54 -102q61 -53 150 -53q75 0 147 46q29 19 35 33q15 33 15 77q0 185 -247 320q259 -142 -53 28l-373 211q-83 48 -86 52t-3 10z" />
<glyph unicode="&#xc8;" d="M-1126 -460q0 11 70 81q54 54 65 54q14 0 89 -79q46 -48 46 -56q0 -12 -69 -81q-54 -55 -67 -55q-16 0 -91 82q-43 47 -43 54z" />
<glyph unicode="&#xc9;" d="M-831 -460q0 11 70 81q54 54 65 54q14 0 89 -79q46 -48 46 -56q0 -12 -69 -81q-54 -55 -66 -55q-17 0 -92 82q-43 47 -43 54z" />
<glyph unicode="&#xca;" d="M-778 -460q0 11 70 81q54 54 65 54q15 0 90 -79q45 -48 45 -56q0 -11 -67 -79q-55 -57 -68 -57q-17 0 -92 82q-43 47 -43 54z" />
<glyph unicode="&#xcb;" d="M-448 -460q0 11 70 81q54 54 65 54q14 0 89 -79q46 -48 46 -56q0 -12 -69 -81q-54 -55 -67 -55q-16 0 -91 82q-43 47 -43 54z" />
<glyph unicode="&#xcc;" d="M-1300 -460q0 11 70 81q54 54 65 54q14 0 89 -79q46 -48 46 -56q0 -12 -69 -81q-54 -55 -67 -55q-16 0 -91 82q-43 47 -43 54zM-917 -460q0 13 70 82q53 53 65 53q14 0 89 -79q46 -48 46 -56q0 -12 -69 -81q-54 -55 -66 -55q-15 0 -88 76q-47 50 -47 60z" />
<glyph unicode="&#xcd;" d="M-1006 -460q0 11 71 82q54 53 65 53q14 0 89 -79q46 -48 46 -56q0 -11 -70 -82q-54 -54 -65 -54q-16 0 -92 82q-44 47 -44 54zM-657 -460q0 13 70 82q53 53 65 53q14 0 89 -79q46 -48 46 -56q0 -12 -69 -81q-54 -55 -66 -55q-15 0 -88 76q-47 50 -47 60z" />
<glyph unicode="&#xce;" d="M-901 -460q0 12 72 83q52 52 63 52q16 0 91 -81q44 -46 44 -54q0 -11 -68 -80q-55 -56 -67 -56q-17 0 -93 83q-42 46 -42 53zM-552 -460q0 15 75 87q50 48 59 48q16 0 91 -81q44 -47 44 -54q0 -12 -68 -81q-55 -55 -67 -55q-14 0 -84 73q-50 52 -50 63z" />
<glyph unicode="&#xcf;" d="M-604 -460q0 12 72 83q52 52 63 52q15 0 91 -81q44 -46 44 -54q0 -12 -68 -81q-55 -55 -67 -55q-16 0 -90 80q-45 48 -45 56zM-290 -460q0 15 75 87q50 48 59 48q16 0 91 -81q44 -47 44 -54q0 -12 -68 -81q-55 -55 -67 -55q-14 0 -84 73q-50 52 -50 63z" />
<glyph unicode="&#xd0;" d="M-1316 -434q0 14 74 85q51 50 61 50q11 0 82 -71q53 -53 53 -64q0 -14 -74 -86q-52 -49 -62 -49q-13 0 -84 74q-50 51 -50 61zM-1135 -695q0 13 75 86q51 49 60 49q15 0 89 -77q47 -49 47 -58q0 -14 -76 -87q-50 -48 -59 -48q-16 0 -90 78q-46 48 -46 57zM-951 -434 q0 14 72 84q52 51 63 51q12 0 82 -70q53 -54 53 -65q0 -13 -74 -85q-51 -50 -61 -50q-15 0 -86 74q-49 51 -49 61z" />
<glyph unicode="&#xd1;" d="M-1038 -434q0 13 71 83q53 52 64 52q12 0 82 -70q53 -54 53 -65q0 -13 -74 -85q-51 -50 -61 -50q-15 0 -88 76q-47 50 -47 59zM-856 -695q0 12 73 84q51 51 61 51q15 0 88 -77q48 -49 48 -59q0 -12 -70 -81q-54 -53 -65 -53q-15 0 -90 79q-45 48 -45 56zM-673 -434 q0 12 73 84q53 51 63 51q11 0 82 -71q53 -53 53 -64q0 -14 -74 -86q-52 -49 -62 -49q-13 0 -88 77q-47 49 -47 58z" />
<glyph unicode="&#xd2;" d="M-950 -434q0 13 71 83q53 52 64 52q12 0 82 -70q53 -54 53 -65q0 -13 -74 -85q-51 -50 -61 -50q-15 0 -88 76q-47 50 -47 59zM-768 -695q0 12 73 84q51 51 61 51q15 0 88 -77q48 -49 48 -59q0 -12 -70 -81q-54 -53 -65 -53q-15 0 -90 79q-45 48 -45 56zM-585 -434 q0 12 73 84q53 51 63 51q11 0 82 -71q53 -53 53 -64q0 -14 -74 -86q-52 -49 -62 -49q-13 0 -88 77q-47 49 -47 58z" />
<glyph unicode="&#xd3;" d="M-664 -434q0 13 73 84q52 51 63 51q12 0 84 -73q50 -52 50 -62q0 -15 -78 -90q-48 -45 -56 -45q-15 0 -88 76q-48 50 -48 59zM-489 -687q0 14 72 84q52 51 63 51q12 0 82 -71q52 -53 52 -63q0 -16 -78 -91q-48 -45 -56 -45q-15 0 -86 74q-49 51 -49 61zM-315 -434 q0 14 72 84q52 51 63 51q12 0 82 -71q52 -53 52 -64q0 -15 -78 -90q-48 -45 -56 -45q-15 0 -86 74q-49 51 -49 61z" />
<glyph unicode="&#xd4;" d="M-1250 1307q0 13 74 85q51 50 62 50q14 0 85 -75q50 -51 50 -61q0 -11 -70 -80q-53 -54 -65 -54q-16 0 -88 76q-48 50 -48 59zM-866 1307q0 14 73 85q51 50 61 50q15 0 86 -75q50 -51 50 -61q0 -11 -70 -80q-53 -54 -65 -54q-16 0 -88 75q-47 50 -47 60z" />
<glyph unicode="&#xd5;" d="M-936 1307q0 14 75 86q51 49 60 49q14 0 86 -75q49 -51 49 -61q0 -12 -68 -80q-54 -54 -67 -54q-15 0 -87 75q-48 50 -48 60zM-588 1307q0 12 74 84q51 51 61 51q14 0 86 -74q49 -51 49 -61q0 -13 -70 -82q-53 -53 -65 -53q-15 0 -90 79q-45 48 -45 56z" />
<glyph unicode="&#xd6;" d="M-848 1307q0 14 75 86q51 49 60 49q14 0 86 -75q49 -51 49 -61q0 -12 -68 -80q-54 -54 -67 -54q-15 0 -87 75q-48 50 -48 60zM-500 1307q0 12 74 84q51 51 61 51q14 0 86 -74q49 -51 49 -61q0 -13 -70 -82q-53 -53 -65 -53q-15 0 -90 79q-45 48 -45 56z" />
<glyph unicode="&#xd7;" d="M-561 1306q0 14 73 85q52 51 63 51q13 0 85 -74q50 -51 50 -61q0 -16 -81 -91q-47 -44 -54 -44q-13 0 -85 73q-51 51 -51 61zM-248 1306q0 16 76 88q50 48 60 48q12 0 86 -74q50 -52 50 -61q0 -15 -82 -92q-47 -43 -54 -43q-12 0 -81 68q-55 55 -55 66z" />
<glyph unicode="&#xd8;" d="M-1229 1587q0 21 44 70q52 56 86 56q3 0 6 -1q1 0 119 -151l117 -150l84 107q104 135 137 165q34 30 59 30q13 0 13 -12q0 -14 -14 -36l-278 -359q-48 -59 -100 -70q-12 0 -188 232q-85 113 -85 119z" />
<glyph unicode="&#xd9;" d="M-915 1576q0 26 44 75q49 53 84 53q13 0 157 -193q74 -99 78 -99q146 191 165 213q68 80 105 80q14 0 14 -13q0 -14 -17 -40l-264 -343q-42 -53 -85 -70q-9 -3 -16 -3q-6 0 -9 4q-19 15 -208 269q-48 65 -48 67z" />
<glyph unicode="&#xda;" d="M-827 1576q0 25 44 74q49 54 84 54q13 0 157 -193q74 -99 78 -99l152 197q79 92 118 96q14 0 14 -13q0 -14 -17 -40l-264 -343q-43 -54 -86 -70q-9 -3 -15 -3t-9 4q-16 13 -197 255q-59 78 -59 81z" />
<glyph unicode="&#xdb;" d="M-583 1568q0 25 45 75q50 54 83 54q9 0 24 -21l92 -121q108 -141 108 -142q3 0 83 106q92 118 93 119q40 46 78 57q6 2 11 2q12 0 12 -13q0 -14 -15 -38l-265 -346q-39 -47 -79 -61q-8 -3 -14 -3t-9 3l-246 323q-1 3 -1 6z" />
<glyph unicode="&#xdc;" d="M-1228 1248q0 18 16 40l275 355q41 51 83 67q9 3 16 3q3 0 6 -1l201 -256q67 -87 67 -94q0 -21 -45 -70q-53 -56 -85 -56q-9 0 -60 67l-67 88l-115 147l-89 -114q-103 -130 -133 -158q-33 -30 -58 -30q-12 0 -12 12z" />
<glyph unicode="&#xdd;" d="M-915 1249q0 15 16 39l266 345q40 50 82 68q10 4 17 4q14 0 189 -234q77 -104 77 -109q0 -20 -43 -69q-51 -57 -86 -57q-2 0 -8 1q-8 8 -114 147l-112 146l-178 -230q-52 -60 -94 -64q-12 0 -12 13z" />
<glyph unicode="&#xde;" d="M-827 1249q0 15 16 39l266 345q40 50 82 68q10 4 17 4q14 0 189 -234q77 -104 77 -109q0 -20 -44 -69q-52 -57 -87 -57q-8 0 -68 80l-164 214l-178 -230q-54 -62 -94 -64q-12 0 -12 13z" />
<glyph unicode="&#xdf;" d="M-584 1249q0 13 17 39q27 42 173 229q98 126 123 148q36 32 60 32q8 0 26 -22l107 -142q121 -158 124 -171q0 -23 -47 -73q-50 -53 -82 -53q-11 0 -78 92l-40 53l-107 139q-6 0 -58 -77q-109 -159 -171 -195q-4 -3 -9 -5q-15 -7 -25 -7q-13 0 -13 13z" />
<glyph unicode="&#xe0;" d="M-1274 1231q0 24 45 73q49 55 84 55q3 0 5 -1q3 0 37 -34l33 -34l80 80q79 79 79 81l-92 160q-7 8 -17 8q-6 0 -36 -25q-33 -28 -54 -28q-13 0 -13 13q0 28 61 89q79 81 144 92q7 1 15 1q26 0 44 -28l50 -87q52 -89 52 -90q6 0 70 -121q87 -163 108 -163q4 0 34 25 q33 28 56 28q13 0 13 -12q0 -29 -61 -91q-79 -79 -144 -91q-8 -1 -15 -1q-27 0 -49 33l-133 233l-115 -115q-105 -105 -123 -120q-36 -30 -57 -30h-4q-4 0 -50 46l-46 46q-1 7 -1 8z" />
<glyph unicode="&#xe1;" d="M-979 1231q0 25 46 74q50 54 83 54q4 0 7 -2q2 0 36 -34l32 -33l160 160q-88 169 -110 169q-6 0 -36 -25q-33 -28 -54 -28q-13 0 -13 13q0 30 63 92q80 78 141 89q7 1 13 1q24 0 39 -18t101 -171l11 -19l156 -270q8 -11 20 -11q4 0 33 24q34 29 56 29q14 0 14 -13 q0 -29 -61 -90q-80 -80 -145 -91q-7 -1 -14 -1q-28 0 -52 38l-130 228l-115 -115q-105 -105 -123 -120q-36 -30 -57 -30h-4q-4 0 -50 46l-46 46q-1 6 -1 8z" />
<glyph unicode="&#xe2;" d="M-891 1231q0 25 46 74q50 54 83 54q4 0 7 -2q2 0 36 -34l32 -33l160 160q-88 169 -110 169q-5 0 -36 -25q-33 -28 -54 -28q-13 0 -13 13q0 30 63 92q79 78 141 89q7 1 14 1q23 0 38 -18t101 -171l11 -19q146 -255 157 -270q7 -11 19 -11q4 0 33 24q34 29 56 29 q14 0 14 -13q0 -29 -61 -90q-80 -80 -145 -91q-7 -1 -14 -1q-28 0 -53 38l-129 228l-115 -115q-105 -105 -123 -120q-36 -30 -57 -30h-4q-4 0 -50 46l-46 46q-1 6 -1 8z" />
<glyph unicode="&#xe3;" d="M-590 1228q0 39 66 93q44 36 63 36q6 0 34 -28l34 -35l148 177l-32 89l-31 86q-7 14 -17 14q-4 0 -7 -2l-50 -39q-21 -14 -37 -14q-11 4 -12 14q3 31 65 93q82 81 145 89q6 1 11 1q26 0 39 -23l183 -499q5 -10 15 -10q5 0 36 26q36 29 57 29q13 0 13 -13q0 -30 -63 -92 q-81 -80 -144 -91q-8 -1 -15 -1q-25 0 -37 22l-49 128l-45 124l-188 -223q-55 -51 -81 -51q-11 0 -67 58q-34 34 -34 42z" />
<glyph unicode="&#xe4;" d="M-1366 -814q0 163 238 341q66 50 166 112q175 108 206 122q13 6 18 6q20 0 23 -21q0 -28 -184 -157l-29 -20q-116 -83 -152 -113q-131 -111 -131 -190q0 -53 56 -77q26 -10 57 -10q56 0 108 42q31 25 45 25q12 0 12 -14q0 -35 -53 -95q-81 -91 -180 -109q-20 -3 -39 -3 q-82 0 -129 62q-32 42 -32 99z" />
<glyph unicode="&#xe5;" d="M-1042 -807q0 139 152 299q51 54 146 137q157 136 177 139q20 0 23 -22q0 -24 -94 -118q-126 -127 -162 -167q-100 -117 -100 -185q0 -64 66 -77q13 -3 26 -3q68 0 131 54q38 30 48 32q13 0 13 -18q0 -65 -74 -139q-81 -80 -171 -95q-15 -3 -30 -3q-77 0 -121 63 q-30 43 -30 103z" />
<glyph unicode="&#xe6;" d="M-944 -797q0 156 210 327q81 67 289 202q54 34 64 35q19 0 23 -17q1 -2 1 -5q0 -25 -150 -141l-21 -17q-204 -161 -247 -237q-18 -33 -18 -66v-6q0 -56 73 -74q19 -5 34 -5q61 0 116 45q32 26 45 26q12 0 12 -15q0 -36 -53 -97q-81 -94 -180 -113q-20 -3 -40 -3 q-83 0 -128 63q-30 42 -30 98z" />
<glyph unicode="&#xe7;" d="M-620 -784q0 145 172 313q44 44 110 99q119 99 123 102q50 38 62 38q19 -5 23 -22q0 -27 -89 -111l-140 -135q-118 -125 -118 -201q0 -62 67 -77q15 -4 30 -4q67 0 129 54q34 28 46 29q13 0 13 -17q0 -62 -75 -135q-80 -80 -168 -95q-17 -3 -32 -3q-80 0 -124 66 q-29 42 -29 99z" />
<glyph unicode="&#xe8;" d="M-1393 1471q0 66 68 142q53 61 94 64q13 0 13 -12q0 -21 -23 -48q-7 -8 -7 -12q-2 -4 -2 -18q0 -67 69 -105q11 -6 21 -9q66 -22 338 -22q288 0 374 -33q58 -22 58 -63q0 -59 -108 -139q-27 -20 -30 -23q-111 -95 -139 -114q-25 -17 -35 -17q-19 0 -21 21q0 22 130 145 l39 38q-32 32 -213 41q-5 0 -171 2q-192 0 -232 3q-158 13 -203 87q-9 16 -14 34q-6 19 -6 38z" />
<glyph unicode="&#xe9;" d="M-993 1472q0 70 72 146q52 56 90 59q12 0 12 -13t-18 -40q-15 -21 -14 -41q4 -83 96 -110q81 -20 265 -22q250 -4 320 -41q40 -21 40 -55q0 -59 -111 -142q-24 -17 -27 -20q-119 -102 -150 -121q-16 -10 -23 -10q-21 0 -22 21q0 21 135 150l34 33q-29 29 -157 39 q-26 2 -51 2q-302 3 -391 31q-65 21 -86 73q-5 10 -8 22q-6 20 -6 39z" />
<glyph unicode="&#xea;" d="M-784 1471q0 65 65 141q54 62 96 65q13 0 13 -14q0 -13 -24 -46q-6 -9 -6 -12q-1 -2 -1 -18q0 -90 109 -118q60 -16 171 -18q225 -4 272 -66q11 -13 11 -30q0 -59 -110 -141q-24 -18 -27 -21q-131 -111 -161 -127q-9 -4 -13 -4q-20 0 -21 20q0 24 128 145l40 39 q-29 29 -201 41q-174 12 -214 20q-19 4 -32 9q-50 20 -77 66q-18 32 -18 69z" />
<glyph unicode="&#xeb;" d="M-557 1471q0 70 71 146q53 57 91 60q13 0 13 -12q0 -17 -20 -44q-12 -17 -12 -29q0 -93 99 -121q25 -7 74 -14l175 -18q146 -22 146 -84q0 -59 -111 -142q-24 -17 -27 -20q-119 -102 -150 -121q-16 -10 -23 -10q-21 0 -22 21q0 22 130 145l39 38q-28 28 -141 36 q-137 10 -175 18q-115 24 -145 96q-12 27 -12 55z" />
<glyph unicode="&#xec;" d="M-2642 1803q0 29 52 86q53 57 94 66q6 1 1376 1q1369 0 1372 -1q7 -4 7 -14q0 -27 -46 -79q-50 -57 -102 -73h-2743q-10 5 -10 14z" />
<glyph unicode="&#xed;" d="M-2642 -1156q0 27 45 79q51 57 102 73h1372l1372 1q10 -7 10 -15q0 -29 -52 -86q-54 -58 -95 -66q-14 -2 -1373 -2q-1361 0 -1369 2q-12 2 -12 14z" />
<glyph unicode="&#xee;" d="M-1650 1804q0 28 49 83q51 56 94 68q5 2 880 2q874 0 878 -2q7 -3 7 -13q0 -29 -50 -84q-48 -52 -95 -69h-876q-877 0 -881 2q-6 4 -6 13z" />
<glyph unicode="&#xef;" d="M-1650 -1157q0 28 48 83q51 57 95 69q5 1 880 1q874 0 878 -1q7 -3 7 -13q0 -29 -46 -80q-46 -50 -99 -73h-876q-877 0 -881 1q-6 4 -6 13z" />
<glyph unicode="&#xf0;" horiz-adv-x="1097" d="M76 579q0 32 67 101q112 116 266 172q101 36 201 36q173 0 281 -115q101 -107 101 -266q0 -177 -135 -330q-108 -123 -249 -172q-62 -21 -118 -21q-132 0 -208 60q-51 41 -51 94q0 71 64 112q35 22 73 22q37 0 68 -31q95 -89 197 -89q73 0 121 26q18 10 27 23 q43 64 43 164q0 171 -127 279q-38 33 -78 50q-62 27 -132 27q-171 0 -282 -83l-73 -57q-19 -12 -35 -16q-5 -1 -6 -1q-12 0 -15 15z" />
<glyph unicode="&#xf1;" horiz-adv-x="1122" d="M60 813q0 59 65 124q49 49 81 49q18 0 18 -17q-2 -15 -15 -40q6 -44 51 -61q59 -21 297 -22h29q291 0 373 30q20 8 32 17q36 30 60 30q17 0 17 -15q0 -24 -32 -65q-88 -115 -303 -137q-26 -3 -188 -9q-122 -4 -165 -26q-27 -14 -53 -88q-23 -65 -23 -124q0 -115 68 -204 q69 -91 179 -103q8 -1 23 -1q209 0 319 88l64 55q22 15 44 15q14 0 14 -14q0 -35 -66 -102q-113 -116 -279 -172q-111 -37 -227 -37q-145 0 -233 110q-74 93 -74 221q0 139 91 281q30 47 69 90q9 11 9 12l-23 1h-1q-140 8 -185 39q-36 26 -36 75z" />
<glyph unicode="&#xf2;" horiz-adv-x="1740" d="M68 817q0 53 63 117q51 52 83 52q18 0 18 -17q0 -12 -15 -40q9 -42 49 -58q55 -22 281 -24q72 -1 293 -1q398 0 537 8q198 12 231 39q36 30 60 30q18 0 18 -16q0 -54 -103 -125q-44 -31 -75 -43q-68 -25 -384 -40q-11 -1 -14 -1q-43 -4 -48 -10q-2 -2 -5 -7 q-52 -87 -52 -199q0 -158 93 -257q62 -65 134 -72q7 -1 23 -1q166 0 263 77l57 47q21 14 41 14q10 0 14 -13q0 -33 -60 -98q-107 -114 -266 -165q-77 -25 -158 -29q-13 -1 -28 -1q-120 0 -199 102q-44 59 -67 141l-17 -17q-189 -192 -404 -222q-32 -4 -62 -4 q-125 0 -203 121q-15 22 -25 45q-32 74 -32 156q0 198 173 399l-7 1q-82 0 -149 23q-26 8 -33 18q-25 34 -25 70zM277 447q0 -135 78 -222q66 -73 155 -73q135 0 240 76q14 10 27 22q51 47 65 161q20 139 115 265q14 18 14 19q0 2 -264 2l-244 2q-96 -3 -115 -28 q-71 -93 -71 -224z" />
<glyph unicode="&#xf3;" horiz-adv-x="2211" d="M51 813v6q0 53 64 117q50 50 82 50q18 0 18 -15l-14 -45q3 -24 19 -42q2 -2 4 -3q70 -36 833 -35h24q779 0 944 27q16 3 28 6q10 3 43 27q24 17 43 17q16 0 16 -16q0 -53 -95 -121q-51 -37 -87 -49q-67 -22 -224 -27q-116 -3 -161 -14q-58 -97 -58 -215q0 -161 91 -262 q16 -17 32 -29q49 -38 110 -38q139 0 235 73l54 42q18 11 33 11t15 -14q0 -33 -64 -98q-107 -110 -252 -157q-78 -25 -157 -25q-167 0 -242 211l-6 17q-174 -174 -320 -214q-51 -14 -102 -14q-135 0 -198 156q-11 29 -20 62q-191 -212 -401 -218h-12q-113 0 -179 122 q-29 54 -40 116q-7 36 -7 75q0 188 135 371l21 27q9 12 9 13q-130 10 -164 25q-48 20 -50 80zM268 438q0 -177 110 -254q47 -32 85 -32q75 0 143 32q31 14 51 34q50 50 84 193q32 140 143 285l-157 1l-197 1l-102 2q-70 0 -83 -12q-1 -2 -11 -17q-66 -107 -66 -233zM896 440 q0 -137 71 -222q55 -67 128 -67q69 0 140 34q43 21 68 49q43 50 58 134q17 101 23 122q28 98 100 195l9 13q0 2 -17 2l-257 -3q-213 -1 -233 -5q-14 -4 -22 -18q-66 -107 -68 -234z" />
<glyph unicode="&#xf4;" horiz-adv-x="1183" d="M125 12v510v306q5 235 32 396q40 240 141 386q27 39 60 76q86 96 130 96q12 -3 13 -14q0 -22 -42 -75q-50 -63 -68 -102q-73 -158 -90 -450q-10 -164 -8 -688q1 -131 1 -224q0 -490 1 -499q7 -88 59 -181q106 -188 325 -203q19 -1 38 -1q101 0 196 41q38 17 50 32 q29 43 31 112q0 46 -34 77q-30 27 -36 35q-17 24 -17 61q0 56 37 96q35 37 95 40q61 3 98 -60q26 -44 26 -103q0 -125 -103 -256q-113 -143 -281 -206q-99 -37 -201 -37q-205 0 -336 146q-88 98 -110 224q-7 41 -7 465z" />
<glyph unicode="&#xf5;" horiz-adv-x="1636" d="M125 -8v529q0 445 17 598q6 55 18 122q42 231 138 369q27 39 60 76q86 96 130 96q12 -3 13 -14q0 -27 -29 -61q-49 -56 -72 -99q-102 -192 -107 -660v-67q54 -36 563 -35h28q564 0 616 44q39 33 66 33q16 0 16 -16q0 -53 -101 -124q-50 -35 -85 -47q-81 -27 -278 -33 q-158 -6 -200 -20q-21 -7 -31 -17q-33 -33 -55 -113q-14 -48 -14 -94q0 -138 93 -232q70 -71 147 -74q3 -1 6 -1l14 3l24 -3q193 0 307 89l65 54q21 14 40 14q14 0 14 -15q0 -31 -66 -99q-112 -116 -264 -171q-29 -10 -59 -18q12 -54 12 -131q0 -171 -108 -350 q-111 -181 -279 -275q-130 -72 -269 -73q-187 -1 -291 166q-55 87 -72 196q-7 42 -7 453zM293 219q0 -494 4 -519q21 -155 111 -255q89 -100 216 -100q111 0 195 43q120 62 154 239q11 54 11 112q0 113 -42 219q-8 19 -10 27h-5q-78 0 -155 62q-94 78 -117 207q-5 30 -5 61 q0 192 168 381h-152q-163 1 -335 10q-18 1 -34 1l-4 1v-489z" />
<glyph unicode="&#xf6;" horiz-adv-x="2193" d="M125 -8v529q0 445 17 598q6 55 18 122q42 231 138 369q27 39 60 76q86 96 130 96q12 -3 13 -14q0 -26 -29 -59q-50 -59 -75 -108q-105 -210 -105 -720q0 -18 1 -18q150 -17 846 -17q867 0 919 44q39 33 65 33q16 0 16 -17q0 -53 -97 -121q-60 -41 -101 -52 q-76 -20 -233 -24q-118 -4 -173 -16q-43 -87 -52 -136q-6 -33 -6 -73q0 -79 34 -167q66 -166 212 -166q154 0 253 77l56 45q19 13 36 13q15 0 15 -15q0 -31 -60 -95q-108 -113 -262 -163q-90 -29 -183 -29q-147 0 -226 168q-11 24 -21 50l-6 20l-26 -25q-66 -68 -163 -131 q-31 -20 -37 -20v-1l24 -87q11 -51 11 -110q0 -264 -208 -468q-114 -111 -241 -164q-14 -6 -26 -10q-77 -28 -162 -29q-190 0 -294 167q-54 86 -71 195q-7 42 -7 453zM293 217q0 -492 4 -517q19 -148 106 -248q92 -107 223 -107q93 0 176 35q51 22 78 54q74 90 85 239 q1 16 1 30q0 140 -65 258l-10 20v3h-18h-8q-110 0 -182 101q-65 92 -65 218q0 150 94 297l68 96l-116 1q-143 0 -331 7h-27l-13 1v-488zM786 435q0 -140 88 -225q62 -58 132 -58q89 0 172 42q41 20 70 49q42 41 58 121l21 106q27 109 103 209l14 19v1q0 1 -6 1t-57 -2 l-450 -3l-52 -6q-15 -4 -22 -14q-71 -100 -71 -240z" />
<glyph unicode="&#xf7;" horiz-adv-x="1114" d="M-84 -469q0 112 104 234q66 76 117 97q10 5 17 5q17 0 17 -14q0 -29 -32 -62q-36 -36 -46 -61q-8 -22 -8 -49q0 -131 103 -224q60 -54 148 -85q81 -28 166 -28q100 0 173 39q26 12 43 29q38 38 59 126q2 7 3 13q5 25 5 139q0 20 1 475q0 656 5 774q5 137 22 246 q43 291 182 474q77 102 146 122q3 1 7 2q2 0 5 -1q11 -4 11 -14q0 -26 -30 -60q-50 -57 -74 -103q-86 -162 -101 -511q-5 -523 -5 -1353q-10 -157 -123 -308q-119 -158 -288 -222q-86 -33 -174 -34q-177 -3 -306 91q-42 31 -73 69q-66 81 -73 176q-1 9 -1 18z" />
<glyph unicode="&#xf8;" horiz-adv-x="2019" d="M-84 -469q0 112 104 234q66 76 117 97q10 5 17 5q17 0 17 -14q0 -29 -32 -62q-36 -36 -46 -61q-8 -22 -8 -49q0 -131 103 -224q60 -54 148 -85q81 -28 166 -28q100 0 173 39q26 12 43 29q38 38 59 126q2 7 3 13q5 25 5 139q0 20 1 475q0 656 5 774q5 137 22 246 q43 291 182 474q77 102 146 122q3 1 7 2q2 0 5 -1q11 -4 11 -14q0 -24 -30 -59q-54 -63 -81 -119q-82 -172 -95 -519q-3 -60 -3 -310v-187q55 71 168 156q209 158 371 158q134 0 222 -102q81 -95 81 -230q0 -193 -164 -374l-29 -32l43 1q170 0 235 51q30 24 32 25q10 5 24 5 q17 0 17 -15q0 -31 -52 -85q-94 -96 -229 -121q-59 -10 -170 -10q-55 0 -218 12q-80 6 -161 7q-97 0 -170 -7v-128l-1 -145q-9 -154 -122 -304q-118 -159 -287 -224q-87 -34 -176 -35q-177 -3 -306 91q-42 31 -73 69q-66 81 -73 176q-1 9 -1 18zM955 147l103 14q87 9 174 9 l193 -8q67 0 113 26q15 9 24 20q63 89 67 206q0 146 -98 237q-66 61 -147 69q-11 1 -22 1q-137 0 -271 -111q-53 -43 -79 -82q-53 -80 -57 -179v-93v-55v-54z" />
<glyph unicode="&#xf9;" horiz-adv-x="2646" d="M-84 -469q0 112 104 234q66 76 117 97q10 5 17 5q17 0 17 -14q0 -29 -32 -62q-36 -36 -46 -61q-8 -22 -8 -49q0 -131 103 -224q60 -54 148 -85q81 -28 166 -28q100 0 173 39q26 12 43 29q38 38 59 126q2 7 3 13q5 25 5 139q0 20 1 475q0 656 5 774q5 137 22 246 q43 291 182 474q77 102 146 122q3 1 7 2q2 0 5 -1q11 -4 11 -14q0 -26 -30 -60q-50 -57 -74 -103q-86 -162 -101 -511q-4 -84 -4 -294q-1 -132 -1 -164q0 -43 2 -43l96 96q212 200 385 200q136 0 219 -141q41 -71 54 -147q202 235 394 279q36 8 68 8q114 0 189 -99 q69 -90 69 -211q0 -206 -190 -411l-15 -16h26h18q173 0 239 51q30 24 32 25q11 6 25 6q17 0 17 -17q0 -30 -47 -81q-95 -102 -253 -127q-8 -1 -17 -2q-35 -4 -138 -4h-50q-55 0 -399 12q-143 5 -263 6q-226 0 -439 -14l-22 -1v-124v-65v-76q-9 -154 -122 -304 q-118 -159 -287 -224q-87 -34 -176 -35q-177 -3 -306 91q-42 31 -73 69q-66 81 -73 176q-1 9 -1 18zM954 144q100 10 204 16q86 5 201 8q102 3 116 8q13 5 23 22q49 88 49 192q0 150 -89 251q-56 63 -122 76q-10 3 -32 3h-10h-14q-101 -10 -191 -89q-111 -98 -132 -249 q-2 -14 -2 -126zM1574 170h7l29 -1h1l428 -14q108 0 160 76q15 22 30 56q33 71 33 151q0 139 -90 223q-55 52 -118 59q-9 1 -20 1q-189 0 -308 -257l-67 -163q-30 -61 -85 -131z" />
<glyph unicode="&#xfa;" horiz-adv-x="1183" d="M55 331q0 137 110 266q63 73 114 93q10 4 17 4q14 0 14 -14q0 -22 -29 -58q-42 -52 -52 -98q-6 -24 -6 -52q0 -128 102 -223q116 -109 300 -114q9 -1 18 -1q251 0 286 193q5 29 5 62q0 172 -179 416l-118 153q-203 258 -257 371q-37 79 -37 152q0 88 72 189q59 83 112 99 q10 3 18 3q17 0 17 -16q0 -25 -26 -54q-33 -36 -40 -69q-3 -16 -3 -35q0 -113 126 -291q30 -42 180 -235q93 -118 148 -200q137 -206 137 -358q0 -176 -139 -332q-71 -80 -166 -137q-130 -78 -271 -78q-188 0 -318 101q-123 97 -134 239q-1 12 -1 24z" />
<glyph unicode="&#xfb;" horiz-adv-x="1183" d="M55 331q0 137 110 266q63 73 114 93q10 4 17 4q14 0 14 -14q0 -22 -29 -58q-42 -52 -52 -98q-6 -24 -6 -52q0 -128 102 -223q116 -109 300 -114q9 -1 18 -1q251 0 286 193q5 29 5 62q0 172 -179 416l-118 153q-203 258 -257 371q-37 79 -37 152q0 88 72 189q59 83 112 99 q10 3 18 3q17 0 17 -16q0 -25 -26 -54q-33 -36 -40 -69q-3 -16 -3 -35q0 -113 126 -291q30 -42 180 -235q93 -118 148 -200q137 -206 137 -358q0 -213 -198 -390q-15 -13 -15 -15q1 0 16 -22q184 -249 196 -413q1 -15 1 -30q0 -217 -202 -394q-22 -19 -47 -38 q-156 -116 -330 -116q-183 0 -313 100q-122 95 -135 235q-2 15 -2 30q0 136 109 264q63 74 115 95q10 4 17 4q12 0 14 -14q0 -20 -29 -56q-43 -54 -53 -103q-5 -24 -5 -50q0 -127 102 -222q116 -109 300 -114q9 -1 18 -1q291 0 291 259q0 176 -201 441l-32 42 q-86 -39 -194 -39q-189 0 -319 103q-122 96 -132 238q-1 12 -1 23z" />
<glyph unicode="&#xfc;" d="M-1167 -912q0 25 26 54q41 47 59 94q29 75 37 200q4 55 5 175v111q20 61 90 113q41 32 64 32q10 0 13 -14q1 -10 1 -81q0 -231 -28 -351q-45 -198 -186 -313q-43 -35 -67 -35q-14 0 -14 15z" />
<glyph unicode="&#xfd;" d="M-889 -912q0 20 47 80q20 26 25 36q37 75 47 194q7 77 8 213l1 111q21 62 91 115q41 30 62 30q11 0 13 -12q1 -9 1 -83q0 -234 -27 -353q-45 -196 -186 -311q-43 -35 -67 -35q-15 0 -15 15z" />
<glyph unicode="&#xfe;" d="M-854 -912q0 23 25 51q42 49 61 100q28 75 37 197q3 38 4 175l1 111q21 62 91 114q40 31 62 31q11 0 13 -12q1 -9 1 -83q0 -214 -17 -310q-27 -154 -113 -266q-67 -86 -123 -115q-16 -8 -28 -8q-14 0 -14 15z" />
<glyph unicode="&#xff;" d="M-506 -912q0 20 47 80q20 26 25 36q37 75 47 194q7 77 8 213l1 111q21 62 91 114q40 31 62 31q11 0 13 -12q1 -9 1 -83q0 -234 -27 -353q-45 -196 -186 -311q-43 -35 -67 -35q-15 0 -15 15z" />
<glyph unicode="&#x152;" horiz-adv-x="731" d="M41 363q0 356 180 692q119 222 286 373q49 45 83 50q15 0 15 -15q0 -26 -53 -86l-50 -55q-195 -222 -263 -537q-30 -137 -30 -277q0 -404 221 -740q70 -106 159 -197q16 -16 16 -23q0 -43 -72 -105q-56 -48 -81 -48q-22 0 -137 150l-22 30q-201 281 -243 629 q-9 79 -9 159z" />
<glyph unicode="&#x153;" horiz-adv-x="731" d="M90 -591q0 26 54 86l49 55q195 223 263 536q30 137 30 276q0 427 -241 771q-62 89 -139 168q-16 17 -16 23q0 42 72 105q56 49 81 49q18 0 110 -115q232 -287 287 -657q14 -100 14 -200q0 -501 -332 -914q-49 -61 -104 -118q-76 -79 -113 -79q-15 0 -15 14z" />
<glyph unicode="&#x160;" d="M-940 -628q0 34 44 72q159 132 327 254q104 74 121 74q23 -5 27 -25q0 -22 -171 -190q-191 -187 -259 -229q-9 -6 -14 -7q-8 -2 -20 -2q-40 0 -52 34q-3 9 -3 19z" />
<glyph unicode="&#x161;" horiz-adv-x="2097" d="M57 669q0 43 71 106q86 77 173 93q17 3 32 3q76 0 95 -100q8 -42 8 -109v-70q58 77 164 159q177 138 318 138q93 0 172 -82t98 -206q114 133 244 214q119 74 217 74q60 0 127 -43q132 -85 132 -267q0 -211 -205 -428l27 -1q174 -4 282 -134q75 -90 75 -214 q0 -128 -98 -258q-110 -147 -282 -206q-92 -32 -190 -32q-147 0 -266 69q-87 50 -119 120q-20 44 -20 79q0 71 70 154q63 67 105 74q16 0 16 -16q0 -20 -22 -49q-19 -24 -19 -43q0 -109 140 -185q44 -23 86 -35q71 -19 152 -19q83 0 167 31q59 22 86 54q42 55 44 148 q0 146 -118 238q-74 58 -165 72q-39 6 -632 11q-68 1 -106 1q-348 0 -598 -21q-64 -5 -107 -5q-14 0 -14 15q0 24 19 46q31 34 41 85q4 20 6 44q5 69 5 368q0 161 -69 161q-46 0 -80 -27q-26 -21 -48 -22q-14 0 -14 15zM379 137h3l216 13q103 4 249 8q99 2 118 23q2 2 4 5 q56 87 56 202q0 156 -91 256q-54 60 -120 73q-11 3 -32 3h-11h-13q-115 -11 -206 -105q-108 -112 -120 -290q-7 -104 -40 -164q48 86 -13 -24zM1043 160h27l450 -6q104 0 157 76q10 15 21 37q42 83 42 170q0 135 -86 220q-49 49 -110 61q-16 2 -29 2q-7 1 -14 1l-21 -2 q-163 -25 -259 -216q-17 -34 -66 -160q-12 -31 -21 -48q-34 -66 -91 -135z" />
<glyph unicode="&#x178;" d="M-559 -652q0 34 61 102q22 26 117 125q148 152 194 193q6 6 20 6q23 -5 26 -26q0 -20 -146 -222q-123 -171 -165 -210q-26 -23 -53 -23q-35 0 -49 31q-5 11 -5 24z" />
<glyph unicode="&#x192;" d="M-1286 1670q0 34 29 49q11 5 23 5q32 0 63 -32q8 -7 22 -23q214 -240 352 -418q82 -107 82 -127t-20 -24q-3 -1 -6 -1q-29 0 -275 250q-213 217 -256 279q-4 5 -5 8q-9 17 -9 34z" />
<glyph unicode="&#x2c6;" horiz-adv-x="487" d="M124 24q0 13 74 84q52 50 62 50q14 0 87 -76q48 -49 48 -59q0 -12 -72 -83q-52 -52 -63 -52q-14 0 -88 78q-48 49 -48 58zM124 436q0 13 74 84q52 51 62 51q13 0 83 -71q52 -53 52 -64q0 -13 -72 -84q-52 -51 -63 -51q-14 0 -88 78q-48 48 -48 57zM124 849q0 12 73 84 q53 51 63 51q12 0 83 -72q52 -53 52 -63q0 -13 -72 -84q-52 -51 -63 -51q-14 0 -87 76q-49 50 -49 59z" />
<glyph unicode="&#x2dc;" d="M-1319 -418q0 75 70 154q73 82 159 93q10 2 21 2q94 0 136 -73q23 -39 23 -92q0 -74 -75 -154q-72 -76 -148 -89q-11 -1 -21 -1q-95 0 -140 70q-25 39 -25 90zM-1205 -328q0 -92 88 -126q28 -11 49 -11q35 0 41 16q4 9 4 30q0 38 -28 79q-40 57 -111 57q-25 0 -37 -6 q-6 -12 -6 -39z" />
<glyph unicode="&#x2000;" horiz-adv-x="978" />
<glyph unicode="&#x2001;" horiz-adv-x="1957" />
<glyph unicode="&#x2002;" horiz-adv-x="978" />
<glyph unicode="&#x2003;" horiz-adv-x="1957" />
<glyph unicode="&#x2004;" horiz-adv-x="652" />
<glyph unicode="&#x2005;" horiz-adv-x="489" />
<glyph unicode="&#x2006;" horiz-adv-x="326" />
<glyph unicode="&#x2007;" horiz-adv-x="326" />
<glyph unicode="&#x2008;" horiz-adv-x="244" />
<glyph unicode="&#x2009;" horiz-adv-x="391" />
<glyph unicode="&#x200a;" horiz-adv-x="108" />
<glyph unicode="&#x2010;" horiz-adv-x="487" d="M124 155q0 12 74 84q52 51 62 51q14 0 87 -77q48 -49 48 -59q0 -12 -68 -80q-54 -54 -67 -54q-16 0 -89 78q-47 48 -47 57zM124 718q0 12 73 84q53 51 63 51q12 0 83 -72q52 -53 52 -63q0 -13 -72 -84q-52 -51 -63 -51q-14 0 -87 76q-49 50 -49 59z" />
<glyph unicode="&#x2011;" horiz-adv-x="487" d="M124 155q0 12 74 84q52 51 62 51q14 0 87 -77q48 -49 48 -59q0 -12 -68 -80q-54 -54 -67 -54q-16 0 -89 78q-47 48 -47 57zM124 718q0 12 73 84q53 51 63 51q12 0 83 -72q52 -53 52 -63q0 -13 -72 -84q-52 -51 -63 -51q-14 0 -87 76q-49 50 -49 59z" />
<glyph unicode="&#x2012;" horiz-adv-x="487" d="M124 155q0 12 74 84q52 51 62 51q14 0 87 -77q48 -49 48 -59q0 -12 -68 -80q-54 -54 -67 -54q-16 0 -89 78q-47 48 -47 57zM124 718q0 12 73 84q53 51 63 51q12 0 83 -72q52 -53 52 -63q0 -13 -72 -84q-52 -51 -63 -51q-14 0 -87 76q-49 50 -49 59z" />
<glyph unicode="&#x2013;" horiz-adv-x="1925" d="M105 407q0 322 218 631q190 267 487 447l55 32q401 223 913 260q73 5 150 6q33 0 37 -8q1 -2 1 -7q0 -23 -53 -88q-17 -20 -22 -28q-92 -150 -107 -649q-5 -148 -5 -474q0 -213 24 -338q6 -32 6 -54q0 -42 -72 -105q-56 -48 -81 -48q-12 0 -15 14q0 2 -3 18 q-18 105 -24 209v12l-25 -25q-183 -183 -392 -220q-41 -8 -76 -8q-140 0 -223 131q-27 41 -46 94q-3 11 -5 11l-71 -72q-175 -164 -356 -164q-144 0 -232 126q-83 118 -83 297zM273 544q0 -176 86 -289q79 -103 198 -103q92 0 166 46q62 39 85 124l36 162q40 148 154 264 q138 140 269 140q138 0 155 -92q2 -11 2 -22q0 -69 -60 -111q-33 -23 -68 -24q-47 -1 -82 34q-31 30 -45 37q-20 10 -46 10q-52 0 -77 -28q-30 -35 -46 -125q-5 -34 -5 -68q0 -118 60 -220q73 -122 191 -127h11q91 0 185 43q66 30 106 75q59 67 62 150v5q9 552 26 730 q23 254 94 395q17 33 37 64q-2 0 -2 1q-575 -14 -984 -249q-214 -124 -326 -274q-146 -195 -176 -453q-6 -50 -6 -95z" />
<glyph unicode="&#x2014;" horiz-adv-x="1071" d="M29 632q4 37 64 97q107 105 257 134q45 8 92 8q197 -14 395 -24q54 0 84 25q20 17 39 17q14 0 16 -15q0 -20 -26 -52q-32 -40 -40 -77q-4 -23 -4 -106q-8 -667 -18 -888q-1 -8 -1 -13q-14 -270 -69 -421q-53 -144 -155 -247q-66 -66 -102 -66q-14 0 -14 13q0 20 55 92 q25 33 31 45q63 124 80 378q8 113 17 581l8 384q0 138 27 189q-24 -5 -52 -6h-19l-134 6q-48 1 -174 13q-41 5 -82 5q-125 0 -197 -55q-37 -28 -43 -31q-10 -4 -21 -4q-16 0 -14 18z" />
<glyph unicode="&#x2018;" d="M-1437 -809q0 108 97 205q61 56 99 64q14 0 14 -13t-23 -43q-39 -49 -39 -106q0 -83 63 -108q14 -6 25 -6q72 0 161 105l23 27q61 76 157 233q73 119 125 188q26 29 40 32q18 -5 21 -24q0 -20 -124 -240q-150 -270 -266 -378q-107 -100 -212 -100q-83 0 -129 63 q-32 43 -32 101z" />
<glyph unicode="&#x2019;" d="M-1102 -782q0 84 73 181q53 71 93 82q5 2 10 2q11 0 11 -14q0 -24 -23 -53q-29 -36 -29 -76q0 -72 52 -109q23 -16 46 -16q99 0 209 203q21 40 104 218q57 124 84 133q3 1 6 1q19 -4 22 -25q0 -23 -99 -260q-42 -100 -64 -144q-108 -214 -241 -273q-45 -19 -90 -19 q-78 0 -127 61q-37 46 -37 108z" />
<glyph unicode="&#x201a;" d="M-1249 -175q0 33 44 71q116 100 298 233q130 96 150 96q26 0 26 -26q0 -14 -15 -30q-8 -9 -29 -31q-171 -173 -221 -220q-155 -147 -198 -147q-39 0 -52 34q-3 10 -3 20z" />
<glyph unicode="&#x201c;" d="M-1008 -824q0 81 71 175q59 78 111 92q8 2 15 2q15 0 15 -13q0 -19 -25 -46q-33 -39 -37 -79q-1 -7 -1 -15q0 -81 50 -111q18 -11 41 -11q76 0 183 133q56 69 158 234q77 125 132 200q22 27 32 31q4 1 8 1q18 -5 21 -24q0 -33 -148 -281q-112 -189 -172 -267 q-122 -159 -258 -182q-18 -3 -34 -3q-81 0 -128 62q-34 44 -34 102z" />
<glyph unicode="&#x201d;" d="M-721 -795q0 81 72 177q53 71 93 83q5 1 9 1h4q10 0 10 -12q0 -24 -26 -56q-27 -36 -27 -67q0 -91 63 -123q17 -8 30 -8h6q99 0 212 210q22 40 108 225q59 126 84 135q3 1 6 0q19 0 22 -24q0 -27 -103 -271q-39 -95 -61 -138q-126 -247 -267 -293q-35 -11 -71 -11 q-89 0 -136 74q-28 43 -28 98z" />
<glyph unicode="&#x201e;" d="M-960 1660q0 37 31 51q10 4 21 4q31 0 65 -39q37 -42 164 -236q177 -272 188 -310q1 -3 1 -5q-5 -23 -26 -27q-14 0 -23 9q-33 26 -266 321q-89 113 -129 168q-26 36 -26 64z" />
<glyph unicode="&#x2020;" d="M-628 1660q0 37 31 51q10 4 21 4q30 0 63 -38q34 -38 166 -237q177 -272 188 -310q1 -3 1 -5q-5 -23 -26 -27q-14 0 -23 9q-33 26 -253 303q-100 127 -142 186q-26 34 -26 64z" />
<glyph unicode="&#x2021;" horiz-adv-x="1054" d="M86 365q0 175 134 329q107 123 244 172q61 22 115 22q154 0 228 -66q41 -38 41 -88q0 -41 -30 -82q-37 -51 -103 -51q-39 0 -86 39q-52 44 -76 57q-46 24 -104 24q-60 0 -112 -22q-29 -12 -39 -28q-44 -72 -44 -164q0 -168 125 -276q25 -22 51 -37q72 -42 160 -42 q181 0 291 87l65 54q22 15 42 15q11 -4 14 -15q0 -28 -45 -78l-315 -318q-153 -152 -177 -168q-29 -19 -46 -19q-14 0 -14 14q0 31 62 97l199 200q-102 -37 -211 -37q-184 0 -292 148q-26 35 -42 71q-35 79 -35 162z" />
<glyph unicode="&#x2022;" horiz-adv-x="1052" d="M-67 -618q0 154 137 341q46 64 107 128l16 18l2 34q4 94 7 211l3 725l14 265q17 219 65 356q49 142 150 249q56 58 95 70q7 3 14 3q14 0 14 -14q0 -19 -37 -68q-51 -67 -69 -115q-79 -211 -79 -764v-42v-80q118 92 156 117q114 72 225 72q104 0 157 -95q36 -62 36 -148 q0 -240 -262 -482q-57 -52 -216 -166q-168 -119 -239 -193q-128 -135 -128 -282q0 -100 66 -177q78 -93 196 -93q76 0 142 50q39 30 52 33q5 1 11 1q11 0 13 -14q0 -34 -62 -98q-95 -98 -211 -129q-42 -11 -81 -11q-137 0 -223 103q-70 84 -71 195zM362 11h2q6 6 94 64 q155 102 236 198q84 100 84 231q0 115 -65 177q-40 39 -93 39h-13q-101 0 -219 -103l-16 -14l-1 -148q0 -201 -8 -406q-1 -19 -1 -38z" />
<glyph unicode="&#x2026;" d="M-903 1670q0 34 29 49q11 5 23 5q32 0 63 -32q8 -7 22 -23q214 -240 352 -418q82 -107 82 -127t-20 -24q-3 -1 -6 -1q-29 0 -275 250q-213 217 -256 279q-4 5 -5 8q-9 17 -9 34z" />
<glyph unicode="&#x202f;" horiz-adv-x="391" />
<glyph unicode="&#x2030;" d="M-1421 -675q0 33 44 68l27 19q202 139 432 279q133 81 150 81q28 0 28 -25q0 -17 -20 -34l-16 -14q-242 -202 -433 -337q-128 -91 -156 -91q-39 0 -52 33q-4 10 -4 21z" />
<glyph unicode="&#x2039;" d="M-858 -628q0 38 79 104q39 33 204 155l134 100q61 41 75 41q23 -5 27 -25q0 -22 -171 -190q-191 -187 -259 -229q-9 -6 -14 -7q-8 -2 -20 -2q-41 0 -52 35q-3 8 -3 18z" />
<glyph unicode="&#x203a;" horiz-adv-x="1009" d="M-32 -566q0 93 105 220l82 97q10 13 16 24q94 167 125 565q21 277 21 775q0 157 -28 194q-16 21 -46 21q-40 0 -76 -28q-27 -21 -47 -21q-13 0 -13 13v4q0 32 58 91q85 87 180 106q18 3 39 3h1q80 -5 97 -124q53 53 127 77q35 12 67 12q82 0 99 -108q2 -16 4 -36 q1 -15 1 -169q0 -669 -81 -909q-57 -172 -248 -341q-23 -20 -164 -135q-110 -89 -138 -141q-10 -18 -13 -36q-1 -7 -1 -14q0 -66 56 -99q30 -18 68 -18q44 0 85 33q32 26 51 28q3 1 6 1q15 0 15 -13q0 -41 -72 -107q-89 -84 -180 -105q-22 -5 -42 -5q-90 0 -132 66 q-22 35 -22 79zM348 -93l20 16q109 90 144 150q27 48 49 158q40 208 48 494q4 134 4 323q0 179 -23 220q-16 27 -56 27q-26 0 -44 -10q-3 -2 -5 -2v-38q0 -676 -38 -958q-29 -220 -99 -380z" />
<glyph unicode="&#x205f;" horiz-adv-x="489" />
<glyph unicode="&#x2122;" d="M-1196 -419q0 75 69 154q73 82 158 94q11 2 23 2q94 0 136 -73q23 -39 23 -92q0 -75 -75 -154q-72 -77 -148 -89q-11 -1 -21 -1q-97 0 -141 71q-24 38 -24 88zM-1082 -328q0 -92 88 -126q28 -11 49 -11q35 0 41 15q3 9 3 30q0 38 -28 79q-39 58 -110 58q-25 0 -37 -6 q-6 -12 -6 -39z" />
<glyph unicode="&#xe000;" horiz-adv-x="985" d="M0 985h985v-985h-985v985z" />
</font>
</defs>
</svg>
